<?xml version="1.0" standalone="no"?>
<!DOCTYPE svg PUBLIC "-//W3C//DTD SVG 1.1//EN" "http://www.w3.org/Graphics/SVG/1.1/DTD/svg11.dtd">
<svg xmlns="http://www.w3.org/2000/svg">
<defs >
<font id="ReenieBeanie" horiz-adv-x="347" ><font-face
    font-family="Reenie Beanie"
    units-per-em="1000"
    panose-1="2 0 0 0 0 0 0 0 0 0"
    ascent="750"
    descent="-250"
    alphabetic="0" />
<glyph unicode=" " glyph-name="space" horiz-adv-x="414" />
<glyph unicode="!" glyph-name="exclam" horiz-adv-x="227" d="M150 483Q150 474 141 444T122 378T103 306T94 251Q94 230 96 217T100 194T105 179T107 163Q107 143 89 143Q86 143 83 147Q61 179 57 210T52 258Q52 279 58 312T73 383T93 458T116 524Q118 526 121
528T129 530Q136 530 140 525T146 512T149 496T150 483ZM183 34Q183 23 177 12T160 0Q147 0 136 13T124 43Q124 49 126 58T139 68Q143 68 150 67T164 63T177 52T183 34Z" />
<glyph unicode="&quot;" glyph-name="quotedbl" horiz-adv-x="233" d="M203 328Q203 324 198 316T188 307Q176 307 168 324T154 364T146 408T144 436Q144 445 150 450T176 455Q186 455 191 440T199 403T202 361T203 328ZM106 319Q106 315 105 308T100 295T93 283T85
278Q75 278 68 293T57 329T51 371T49 405Q49 440 55 451T77 463Q90 463 93 452T96 431Q96 420 97 406T101 375T104 344T106 319Z" />
<glyph unicode="#" glyph-name="numbersign" horiz-adv-x="635" d="M593 552Q593 549 588 535T576 505T563 473T555 452Q563 452 571 449T580 440Q580 436 579 434T569 429Q563 427 558 426T549 423T543 416T537 402Q529 373 517 336T491 258Q502 261 513 266T538
271Q542 271 547 269T553 259Q553 251 547 247T531 240T510 235T489 226Q485 224 483 220T478 210Q474 197 469 171T456 118T437 71T410 51Q401 51 399 56T397 67Q397 73 400 89T408 126T418 169T428 209Q417 209 404 206T376 199T349 191T326 182Q314 150 307
116T279 52Q276 48 269 48Q263 48 259 55T254 77Q254 86 257 99T263 124T270 146T273 156Q273 161 267 161Q256 161 230 151T172 129T105 107T44 97Q42 97 35 98T20 101T6 107T0 115Q0 123 5 128T18 134Q41 134 75 140T145 157T214 179T271 203Q279 208 282 213T289
228L333 372Q319 370 285 355T212 319T137 278T81 246Q73 252 70 259T67 274Q67 280 79 290T110 311T153 335T199 358T241 377T272 389Q286 394 306 397T344 408Q351 411 355 418T362 435Q364 441 370 445T382 449Q398 449 398 438Q398 426 415 426Q435 426 453
431T478 438Q490 441 496 445T507 457Q515 471 521 490T535 526T551 555T572 567Q580 567 586 563T593 552ZM491 410Q465 404 438 398T385 384Q369 345 356 305T335 222L439 246Q445 262 452 282T466 325T479 369T491 410Z" />
<glyph unicode="$" glyph-name="dollar" horiz-adv-x="368" d="M383 582Q383 580 378 566T363 531T345 487T326 443T312 409T306 394Q306 390 310 385T320 374T330 360T335 340Q335 334 331 327T317 316Q315 321 305 331T289 346Q284 338 273 313T251 259T230
207T219 181Q230 170 241 159T262 136T277 110T283 77Q283 45 256 27T194 9Q190 9 182 11T167 15T153 19T147 21Q140 21 131 1T112 -43T92 -88T71 -108Q63 -108 59 -98T55 -86Q55 -72 62 -54T78 -18T94 15T101 36Q101 39 93 44T76 57T58 74T50 95Q50 103 57 115T75
127Q78 127 82 123T86 116Q86 113 84 110T81 104Q81 101 85 96T96 85T107 76T116 72Q120 72 128 87T144 119T157 152T163 167Q161 168 154 172T138 182T121 194T108 204Q103 209 100 217T94 234T90 250T88 262Q88 281 105 305T147 351T199 387T247 402Q251 402
259 400Q271 425 284 460T310 528T337 583T365 606Q383 606 383 582ZM242 351Q234 350 217 342T181 320T150 290T136 255Q136 250 139 242T148 226T161 212T176 206Q179 206 189 228T211 277T232 327T242 351ZM231 78Q233 84 233 88Q233 97 229 107T219 125T210
138T204 144Q192 124 182 103T160 59Q165 56 173 54T186 52Q201 52 214 59T231 78Z" />
<glyph unicode="%" glyph-name="percent" horiz-adv-x="626" d="M574 200Q574 185 568 158T549 105T517 59T471 39Q459 39 446 41T421 50T402 66T395 93Q395 102 400 115T413 139T431 159T453 167Q459 167 467 162T475 150Q475 143 471 136T461 122T452 108T447
93Q447 88 450 85T456 82Q471 82 484 94T507 122T524 154T530 180Q530 185 524 185Q521 185 514 181T499 177Q490 177 485 185T480 196Q480 200 484 206T494 218T506 228T517 232Q523 232 533 231T552 227T567 217T574 200ZM569 631Q537 579 499 524T430 412Q425
403 410 375T377 311T338 234T300 160T271 102T260 75L234 21Q224 1 217 -17T209 -36Q202 -53 197 -67Q192 -79 189 -91T185 -108Q185 -111 188 -120T192 -133Q192 -144 182 -153T167 -163Q148 -163 141 -149T133 -121Q133 -100 149 -56T191 43T246 157T303 270T352
364T380 421Q380 422 368 419T340 411T306 402T278 398Q261 398 247 401T220 409T194 417T168 422Q166 422 161 415T147 400T128 384T104 377Q78 377 67 389T55 415Q55 431 63 449T85 483T115 509T149 519Q158 519 171 511T185 495Q185 494 181 487T170 478Q171
478 182 473T210 461T244 449T276 443Q320 443 353 459T411 499T454 552T486 605T511 646T535 662Q546 662 557 654T569 631ZM138 469Q127 469 115 458T102 430Q102 426 106 426Q109 426 114 432T125 447T134 462T138 469Z" />
<glyph unicode="&amp;" glyph-name="ampersand" horiz-adv-x="327" d="M277 599Q277 595 272 577T260 534T245 485T230 442Q228 437 226 431T216 425Q210 425 206 429T200 440T198 453T197 464Q197 471 203 495T218 545T238 591T260 612Q267 612 272 608T277 599ZM283
180Q283 162 266 157Q254 154 235 146T196 129T156 114T124 107Q102 107 88 114T74 134Q74 151 80 162T93 183Q93 184 86 186T71 192T56 201T49 213Q49 231 68 254T112 298T159 334T187 351Q195 355 207 359T224 364Q237 364 237 350Q237 342 235 334T225 325Q219
325 216 326T211 328Q205 328 196 324T179 314Q170 307 158 297T134 275T112 253T96 231Q98 230 103 229T112 227Q116 227 122 231T134 239T148 248T162 252Q173 252 178 246T183 236Q183 219 168 204T139 181Q136 173 136 170Q136 161 146 161Q153 161 167 167T199
181T233 195T262 202Q272 202 277 194T283 180ZM153 -71Q153 -89 148 -118T138 -174Q132 -206 124 -240Q122 -245 115 -249T97 -254Q91 -254 88 -250T84 -241T82 -230T82 -223Q82 -207 85 -188T94 -147T104 -103T112 -59Q113 -48 117 -33T135 -18Q148 -18 150 -33T153
-71Z" />
<glyph unicode="&apos;" glyph-name="quotesingle" horiz-adv-x="183" d="M132 554Q132 541 127 525T114 489T102 448T96 402Q96 368 92 358T84 347Q73 347 67 354T58 371T54 391T53 409Q53 411 55 423T62 454T72 492T85 530T100 559T119 571Q125 571 128 564T132 554Z" />
<glyph unicode="(" glyph-name="parenleft" horiz-adv-x="238" d="M177 479Q180 479 192 477T204 470Q204 468 199 463T192 456Q172 436 154 404T121 336T99 266T90 206Q90 180 95 153T110 104T132 68T159 54Q162 54 166 57T174 62Q179 62 181 55T184 41Q184 36
178 32T165 25T150 21T140 19Q126 19 111 30T83 64T62 120T53 198Q53 250 66 300T99 390T140 454T177 479Z" />
<glyph unicode=")" glyph-name="parenright" horiz-adv-x="286" d="M237 230Q237 179 219 138T174 69T117 25T64 10Q56 10 49 12T42 24Q42 27 43 32T48 42Q51 40 58 40Q72 40 94 54T136 96T172 165T187 259Q187 279 182 302T170 348T156 387T142 411Q139 414 139
418Q139 423 146 430T161 438Q168 438 181 426T206 388T228 323T237 230Z" />
<glyph unicode="*" glyph-name="asterisk" horiz-adv-x="341" d="M328 444Q328 439 316 428T289 403T261 379T244 363Q250 362 259 362T276 360T290 355T296 344Q296 339 287 336T274 332Q260 332 250 332T231 330T213 326T193 320V311Q193 302 204 293T230 274T256
255T268 236Q268 233 265 229T258 225Q251 225 236 232T205 249T176 269T158 285Q139 274 127 253T100 212Q88 212 81 216T73 231Q73 251 90 271T121 309Q111 309 95 311T71 314Q60 315 47 325T33 347Q33 352 39 355T53 358Q61 358 75 354T113 350Q120 350 122
353Q118 360 114 375T109 412Q109 424 118 428T132 433Q141 433 146 424T156 402T164 377T175 358Q177 360 195 376T235 412T278 446T303 462Q310 462 319 455T328 444Z" />
<glyph unicode="+" glyph-name="plus" horiz-adv-x="322" d="M302 253Q302 250 297 246T283 237T266 230T248 225Q231 221 213 220T179 216Q187 178 187 141Q187 103 178 81T154 59Q148 59 144 66T139 86Q139 89 141 98T144 117Q144 119 143 130T141 156T138 185T135
207Q125 207 110 206T92 204Q78 204 68 208T57 228Q57 237 65 240Q68 237 72 237Q73 237 81 238T99 242T116 246T124 251Q124 253 121 271T113 310T105 353T101 382Q101 383 101 388T103 398T108 407T117 411Q136 411 139 399Q147 365 151 338T159 291T166 261T178
250Q202 253 223 256Q240 258 257 260T279 262Q281 262 291 260T302 253Z" />
<glyph unicode="," glyph-name="comma" horiz-adv-x="178" d="M132 32Q132 21 124 0T102 -42T73 -78T41 -94Q33 -94 28 -88T22 -78Q22 -77 31 -66T53 -38T74 -3T84 34Q84 53 80 62T70 78T61 90T56 107Q56 122 72 122Q88 122 99 112T117 87T128 57T132 32Z" />
<glyph unicode="-" glyph-name="hyphen" horiz-adv-x="256" d="M211 224Q211 214 195 205T157 188T117 177T93 172Q75 172 69 174T57 187Q54 191 51 196T48 205Q48 209 49 210T57 211Q68 211 89 216T132 227T172 238T194 243Q199 243 205 236T211 224Z" />
<glyph unicode="." glyph-name="period" horiz-adv-x="139" d="M104 64Q104 58 98 53T85 43T70 36T62 33Q53 33 49 37T42 47T39 58T38 65Q38 69 40 75T46 88T55 98T68 103Q81 103 92 92T104 64Z" />
<glyph unicode="/" glyph-name="slash" horiz-adv-x="307" d="M250 483Q256 481 256 471Q256 469 256 468T255 465V463Q232 406 212 336T167 195T115 57T48 -60Q40 -71 38 -71Q35 -71 32 -61T28 -48Q28 -46 56 25Q69 58 84 101T116 191T148 284T178 371Q186 395
195 416T212 454T226 479T237 488Q239 488 242 487T250 483Z" />
<glyph unicode="0" glyph-name="zero" horiz-adv-x="357" d="M326 238Q326 196 316 166T290 114T255 79T217 58T185 47T164 44Q141 44 120 54T83 83T58 125T48 178Q48 202 54 225T66 269T79 306T85 332Q85 334 85 337T84 343Q84 349 88 352Q96 358 100 361T111
364Q118 364 131 361T149 357Q154 357 160 357T174 358Q182 359 190 360Q203 360 226 356T271 338T310 301T326 238ZM169 91Q196 91 217 102T252 134T274 180T281 236Q281 258 273 274T253 300T224 314T193 319Q173 319 158 316T126 313Q123 304 118 289T108 258T100
226T96 198Q96 183 98 164T109 129T131 102T169 91Z" />
<glyph unicode="1" glyph-name="one" horiz-adv-x="289" d="M228 34Q228 24 216 18T197 12Q193 12 186 15T176 24Q165 63 159 96T148 160T140 223T131 293Q123 290 110 282T84 265T62 249T50 242Q47 242 45 250T42 261Q42 263 43 267T47 275Q49 278 63 290T94
318T124 349T137 374Q137 382 143 384T151 386Q159 386 164 380T172 365T176 347T178 331Q178 279 182 244T193 176Q197 141 203 117T214 76T224 49T228 34Z" />
<glyph unicode="2" glyph-name="two" horiz-adv-x="367" d="M311 68Q311 57 302 51T286 45Q277 45 273 48T263 55T249 62T224 65Q204 65 189 55T160 34T133 12T106 2Q89 2 84 14T79 45Q79 49 92 74T122 131T156 190T178 230Q184 241 195 261T217 301T237 337T245
356Q245 363 242 365T236 367Q229 367 206 359T156 342T106 325T76 317Q75 317 70 322Q68 325 67 328T65 334Q65 338 88 351T145 377T212 401T269 412Q282 412 292 404T302 382Q302 367 291 341T263 284T227 220T190 160T161 113T148 88Q155 92 166 95T188 102T210
107T227 109Q235 109 249 107T277 101T301 88T311 68Z" />
<glyph unicode="3" glyph-name="three" horiz-adv-x="367" d="M317 340Q317 323 300 307T261 278T222 256T200 246Q188 241 188 235Q188 231 196 231T226 222Q238 218 252 212T278 195T298 169T306 131Q306 108 289 87T248 50T195 25T143 15Q129 15 115 17T88
25T67 38T59 58Q59 64 63 73T73 88Q85 77 100 71T140 65Q156 65 176 71T215 88T245 112T257 141Q257 162 236 171T190 186T144 201T123 231Q123 245 143 259T189 286T234 310T255 332Q255 339 242 339Q226 339 207 334T171 323T139 312T117 307Q103 307 99 312T94
329Q94 336 104 342T129 355T163 365T199 373T229 379T248 381Q255 381 266 380T289 374T308 361T317 340Z" />
<glyph unicode="4" glyph-name="four" horiz-adv-x="396" d="M349 194Q349 189 344 182T332 173Q319 167 304 167T276 166T255 159T246 137Q246 132 248 114T252 71T257 18T259 -33Q259 -39 258 -46T254 -61T246 -73T232 -78Q224 -78 220 -70T213 -51T210 -32T209
-22Q209 -21 209 -3T208 40T207 94T205 145Q205 155 200 155Q197 155 186 154T163 152Q158 152 141 153T103 159T68 175T52 206Q52 220 63 236T91 269T127 302T163 334T191 361T202 381V416Q202 421 206 423T214 425Q223 425 228 418T237 400T241 379T242 364Q242
337 242 320T244 288T245 258T246 218Q246 208 254 208Q257 208 266 210T287 215T309 220T323 223Q334 223 341 215T349 194ZM204 258Q204 274 204 290T199 314Q173 288 153 267Q136 249 122 232T107 209Q120 204 137 203T167 202Q175 202 185 202T204 205V258Z"
/>
<glyph unicode="5" glyph-name="five" horiz-adv-x="353" d="M401 353Q401 349 378 341Q330 326 291 315T214 287Q179 271 162 259T142 247Q140 247 138 248T135 250Q130 245 119 235T103 216Q105 214 109 213T118 211Q123 210 129 210Q139 210 163 206T212 192T256
164T276 117Q276 100 260 87T223 65T183 52T157 47Q138 47 123 62T108 97Q108 101 114 101Q121 101 129 99T146 96Q148 96 160 98T185 106T209 119T220 135Q220 141 211 146T189 155T166 161T149 163Q143 163 137 162T117 161Q108 161 96 162T73 168T53 182T45
207Q45 214 57 231T85 266T119 297T147 311Q150 311 151 309T155 306Q170 313 195 323T249 342T304 357T348 364Q369 364 385 362T401 353Z" />
<glyph unicode="6" glyph-name="six" horiz-adv-x="304" d="M244 141Q244 121 235 99T211 56T181 23T152 10Q138 10 121 20T96 45Q94 50 92 50Q88 50 85 46T77 41Q75 41 72 47T65 62T60 79T57 91Q57 94 59 103T62 116V166Q62 204 70 251T94 341T131 411T178 440Q195
440 203 433T211 419Q211 413 206 410T196 403Q175 386 159 360T131 304T113 243T106 183Q111 188 119 194T138 207T159 217T179 222Q199 222 211 215T231 196T241 170T244 141ZM202 147Q202 175 182 175Q171 175 159 167T135 147T117 123T110 105Q110 100 114
93T123 78T134 66T145 60Q155 60 165 70T183 93T197 122T202 147Z" />
<glyph unicode="7" glyph-name="seven" horiz-adv-x="390" d="M329 322Q329 313 321 301T303 271T280 227T260 161Q255 137 254 107T242 54Q237 43 229 33T208 23Q200 23 198 35T195 55Q195 68 201 100T216 170T236 243T257 297Q255 299 252 300T239 302Q239 302
223 301T185 298T141 295T107 293Q88 293 72 294T44 299T25 311T18 333Q18 341 23 344T34 347Q33 347 57 343T114 338Q170 338 217 344T285 359Q291 361 292 361Q295 361 300 357Q311 351 320 344T329 322Z" />
<glyph unicode="8" glyph-name="eight" horiz-adv-x="416" d="M413 364Q413 351 399 334T362 300T313 265T263 234T222 210T201 197Q208 188 215 172T229 136T240 99T245 68Q245 52 239 39T221 16T197 1T170 -5Q149 -5 129 0T94 15T70 40T60 77Q60 105 73 127T103
166T132 192T146 205Q146 208 136 223T112 259T89 303T78 346Q78 365 87 380T112 405T148 420T189 425Q210 425 231 423T268 414T294 396T304 365Q304 363 301 357T292 343T281 329T271 323Q265 323 265 333Q265 336 266 340T268 348Q268 366 249 373T202 381Q193
381 180 379T154 372T132 357T123 333Q123 328 131 313T149 281T168 250T181 231Q202 242 228 258T286 291Q308 302 329 316T366 343T394 365T407 374Q410 374 411 370T413 364ZM200 79Q200 82 198 96T191 125T180 153T165 166Q161 166 151 158T130 137T111 112T102
89Q102 72 116 56T156 40Q173 40 186 51T200 79Z" />
<glyph unicode="9" glyph-name="nine" horiz-adv-x="400" d="M346 339Q346 328 338 307T318 250T294 163T276 41Q275 28 275 20T274 6T273 -5T273 -18Q273 -25 274 -28T276 -37Q276 -60 252 -60Q241 -60 232 -49T223 -25Q224 -12 227 23T236 100T249 183T264 249Q253
243 239 237T209 227T178 219T151 216Q109 216 81 245T53 318Q53 344 64 364T93 397T131 418T168 425Q209 425 234 411T277 349Q278 347 278 344T279 339Q279 335 278 332T276 324Q276 323 278 317Q289 323 296 339T315 368Q317 368 322 365T332 358T342 348T346
339ZM253 298Q253 307 250 320T238 346T215 367T180 376Q165 376 150 371T123 358T104 339T96 314Q96 285 114 276T158 266Q171 266 187 269T218 276T243 286T253 298Z" />
<glyph unicode=":" glyph-name="colon" horiz-adv-x="195" d="M112 155Q117 155 122 149T132 135T138 118T141 102Q141 91 131 83T94 75Q86 75 78 80T69 95Q69 98 73 107T84 127T98 146T112 155ZM126 279Q126 273 120 268T107 258T92 251T84 248Q75 248 71 252T64
262T61 273T60 280Q60 284 62 290T68 303T77 313T90 318Q103 318 114 307T126 279Z" />
<glyph unicode=";" glyph-name="semicolon" horiz-adv-x="197" d="M140 64Q140 42 134 17T115 -29T81 -65T29 -80Q19 -80 12 -75T4 -57Q4 -46 11 -42T27 -37Q31 -37 31 -38T33 -40Q60 -40 70 -19T85 29T95 76T117 98Q131 98 135 85T140 64ZM118 261Q118 255 112
250T99 240T84 233T76 230Q67 230 63 234T56 244T53 255T52 262Q52 266 54 272T60 285T69 295T82 300Q95 300 106 289T118 261Z" />
<glyph unicode="&lt;" glyph-name="less" horiz-adv-x="467" d="M458 82Q458 77 452 71T435 64Q432 64 426 63T416 62Q372 62 323 71T216 80Q214 80 211 80T202 80T186 79T158 79Q152 79 135 81T99 89T67 104T52 126Q52 135 60 146T81 171T111 202T146 239Q153
246 169 268T205 312T242 353T271 371Q276 371 280 367T285 357Q285 350 281 346Q267 320 246 291T202 234T156 180T113 135Q114 134 122 132T139 129T158 126T170 124Q178 124 240 118T415 104Q418 104 425 106T435 109Q446 109 452 99T458 82Z" />
<glyph unicode="=" glyph-name="equal" horiz-adv-x="388" d="M345 282Q345 274 336 270T322 266Q316 266 296 264T249 259T193 251T139 244T98 238T80 236Q75 236 71 241T66 252Q66 257 69 260T74 266Q81 270 117 279T234 295Q253 296 264 296T285 297T304 298T329
300Q334 300 339 293T345 282ZM319 185Q319 180 302 173T259 157T202 141T144 125T98 114T76 110Q59 110 54 116T49 138Q49 149 52 152T59 156Q64 156 67 153T75 150Q78 150 93 153T130 162T177 173T224 185T264 193T287 197Q298 197 308 195T319 185Z" />
<glyph unicode="&gt;" glyph-name="greater" horiz-adv-x="462" d="M407 151Q420 139 396 129T311 108Q276 102 240 93T172 74T113 59T74 52Q63 52 59 59T55 71Q55 78 72 86T115 103T173 119T237 133T293 145T333 152Q271 203 215 264T103 376Q99 379 96 389T93
403Q93 409 97 414T110 421Q114 421 128 409T161 378T198 341T231 309L407 151Z" />
<glyph unicode="?" glyph-name="question" horiz-adv-x="392" d="M352 432Q352 414 337 395T300 355T252 313T204 272T167 232T152 197Q152 186 154 174T162 153Q157 144 152 139T139 134Q132 134 127 140T117 155T111 174T108 192Q108 215 114 230T132 259T163
287T205 319Q223 333 241 349T274 380T298 410T308 437Q308 447 300 457T277 474T244 486T204 491Q157 491 131 484T88 477Q80 477 72 481T64 495Q64 507 82 515T123 527T168 532T197 534Q228 534 256 525T305 502T339 470T352 432ZM221 6Q221 -6 209 -12T187 -19Q178
-19 166 -10T154 9Q154 12 154 17T157 29T164 39T175 44Q178 44 185 40T201 29T215 17T221 6Z" />
<glyph unicode="@" glyph-name="at" horiz-adv-x="532" d="M498 249Q498 232 483 211T446 170T402 137T364 123Q357 123 347 127T326 137T305 150T287 164Q283 158 277 150T263 135T247 122T232 117Q215 117 206 134T196 165Q196 185 207 212T233 265T264 309T292
327Q300 327 307 322T314 309Q314 306 309 302T300 294Q291 285 280 270T260 237T243 204T236 179Q236 176 236 172T239 166Q247 169 252 182T263 211T273 238T286 250Q296 250 303 244T314 230T319 213T321 201Q321 196 325 190T336 178T348 168T359 164Q377 164
395 172T429 194T461 225T488 260Q490 259 494 256T498 249ZM484 439Q484 435 482 435Q480 435 478 437Q467 445 444 454T386 464Q362 464 330 451T264 415T196 360T137 291T94 212T78 127Q78 104 84 77T104 25T142 -15T205 -31Q230 -31 251 -26T287 -14T313 -3T327
3Q334 3 334 -5Q334 -19 321 -30T289 -49T247 -61T206 -66Q177 -66 148 -56T96 -22T59 38T44 127Q44 180 61 228T108 318T173 393T247 450T320 487T382 500Q400 500 418 497T451 488T475 475T484 458V439Z" />
<glyph unicode="A" glyph-name="A" horiz-adv-x="406" d="M354 -44Q355 -48 355 -51T355 -57Q355 -67 351 -71T333 -75Q321 -75 317 -71Q311 -65 301 -40T280 19T259 92T240 166Q229 161 210 156T171 145Q148 140 123 134Q114 91 110 61T102 11T93 -18T75 -28Q67
-28 61 -19T55 8Q55 17 60 50T71 123T83 204T91 267Q92 279 97 306T109 361T121 413T129 439Q145 476 149 515T156 586T165 639T190 660Q195 660 200 652T211 633T219 612T223 595Q224 589 225 571T228 532T231 490T234 458Q237 425 243 384T257 307T270 247T279
222Q283 222 289 224T302 226Q310 226 310 218Q310 210 306 205T298 196T290 189T286 182Q286 174 295 141L311 82Q313 74 320 55T334 16T348 -22T354 -44ZM132 185Q138 185 154 188T187 197T217 207T230 215Q230 218 227 230T219 262T209 307T200 360Q198 378
195 409T189 470T184 523T182 545Q182 545 179 531T173 499T167 466T164 448V420Q164 418 162 403T155 364T147 313T138 260T132 216T129 189Q129 185 132 185Z" />
<glyph unicode="B" glyph-name="B" horiz-adv-x="565" d="M516 301Q516 275 504 250T474 203T435 163T397 131Q379 117 355 101T309 71T269 46T248 30L219 7Q214 3 208 2T197 1Q190 1 186 8T182 24Q182 30 193 45T220 72Q235 83 257 94T317 129Q336 141 363 160T414
202T455 249T472 297Q472 306 451 315T390 325Q350 325 306 313T225 287T160 261T127 249Q130 226 134 193T144 128Q149 92 155 53H159Q161 43 167 24T173 -6Q173 -22 161 -22Q155 -22 148 -11T133 15T120 44T112 65Q103 98 95 141T80 227T70 309T66 373Q66 380
69 385T73 395Q73 400 71 402T68 411Q68 414 69 417T78 421Q85 419 91 419T103 417T111 408T114 389V383Q114 381 114 379T113 374Q113 357 114 347T117 337Q120 337 138 351T183 388T239 437T298 489Q309 499 328 517T365 557T397 596T411 625Q411 635 405 635Q397
635 371 628T312 610T244 583T182 552Q154 533 126 510T76 467T39 432T23 415Q21 413 21 411Q21 409 22 406T24 400Q24 397 20 395T11 393Q3 393 -9 396T-21 416Q-21 430 -5 451T36 496T93 543T154 587Q184 606 219 623T289 654T355 674T406 682Q414 682 424 680T443
674T458 664T464 648Q464 621 448 593T406 535T348 477T283 420T220 367T170 320Q181 324 206 333T260 352T320 369T373 376Q380 376 403 375T451 367T496 345T516 301Z" />
<glyph unicode="C" glyph-name="C" horiz-adv-x="522" d="M477 229Q477 215 470 200T451 170T427 142T403 118Q376 94 348 73T289 34T225 7T156 -3Q47 -3 47 109Q47 120 56 152T79 225T112 311T151 393T190 455T227 479Q238 479 243 472T249 457Q248 451 235 432T208
392Q206 389 201 382T191 368Q185 360 179 351Q175 344 162 316T133 250T106 172T94 101Q94 84 101 74T119 59T141 53T162 51Q199 51 240 67T320 111T390 173T440 247Q444 254 448 256T457 258Q465 258 471 247T477 229Z" />
<glyph unicode="D" glyph-name="D" horiz-adv-x="448" d="M404 300Q404 266 392 235T358 175T307 119T242 65Q205 37 156 11T58 -35T-36 -68T-107 -80Q-125 -80 -133 -76T-142 -55Q-142 -44 -134 -29T-118 -14Q-110 -14 -107 -19T-103 -30Q-103 -33 -103 -35T-104
-38V-40Q-66 -36 -3 -17T149 51Q187 72 224 100T290 161T338 229T356 299Q356 323 332 348T270 396T188 435T106 458Q107 453 109 434T115 388T124 333T137 278Q145 250 147 237T151 214Q152 204 154 189T158 157T161 126T163 103Q163 94 160 84T151 74Q139 74
135 82T127 111T118 165T99 246Q79 313 71 372T61 467Q61 467 57 467T45 468T28 468T10 469Q-7 469 -21 463T-44 448T-60 434T-69 427Q-76 427 -88 430T-101 444Q-101 457 -89 470T-58 494T-19 511T20 518Q50 518 90 510T172 488T256 454T331 410T384 358T404 300Z"
/>
<glyph unicode="E" glyph-name="E" horiz-adv-x="369" d="M331 353Q332 351 333 351T334 348Q334 342 309 326T247 289T169 248T96 214Q96 212 94 201T92 187V168Q92 145 99 123T120 82T156 53T205 42Q217 42 234 46T268 59T298 80T314 107Q326 106 328 100T331
92Q331 66 319 48T288 18T249 1T212 -5Q126 -5 87 43T48 169Q48 173 50 187T52 206Q52 207 48 208T40 212T32 218T28 231Q28 239 34 244T48 253L58 259Q67 297 79 332T111 404Q103 404 94 406T85 420Q85 434 101 451T139 483T182 508T212 519Q216 519 217 518T223
516Q231 516 243 519T270 526T296 533T317 536Q326 536 330 530T335 517Q335 509 325 506T307 500Q279 495 249 483T192 455Q182 444 168 424T141 377T118 323T104 270L121 278Q198 315 246 336T322 357Q327 357 331 353Z" />
<glyph unicode="F" glyph-name="F" horiz-adv-x="336" d="M356 537Q356 533 353 531T347 527Q343 525 338 524Q330 524 324 525T310 526Q299 526 267 514T199 482T137 442T108 405L120 337Q125 311 128 290T133 269Q135 270 146 277T175 294T212 315T252 335T287
350T312 356Q319 356 324 353T330 342Q330 336 316 325T281 301T236 274T190 247T155 224T141 208Q141 203 144 177T154 118T169 56T188 14Q190 12 190 8Q190 2 182 -5T168 -13Q160 -13 152 2T136 40T123 89T112 138T104 176T100 191Q97 191 86 188T63 184Q54 184
48 191T41 207Q41 215 46 221T58 232T73 241T87 249L59 440Q59 448 62 456T75 465Q77 465 81 461T87 456Q90 458 113 476T169 516T241 555T313 573Q326 573 341 562T356 537Z" />
<glyph unicode="G" glyph-name="G" horiz-adv-x="470" d="M439 234Q439 214 437 196T426 160T402 120T363 72Q334 40 295 15T208 -10Q178 -10 149 0T97 30T60 80T46 150Q46 214 70 284T137 436Q165 489 189 529T236 597T282 639T331 653Q351 653 365 646T380 616Q380
609 377 604T368 598Q360 598 357 602T337 607Q310 607 284 582T236 525T197 460T173 413Q161 388 147 354T119 284T97 215T88 159Q88 131 97 110T123 73T160 51T206 43Q239 43 273 59T335 101T380 161T398 230Q398 265 380 288T340 311Q326 311 321 307T310 295Q303
284 297 277T276 265Q252 257 239 254T219 248L211 246Q205 246 195 254T184 268Q184 286 205 302T254 332T306 354T337 362Q367 362 386 350T417 319T434 278T439 234Z" />
<glyph unicode="H" glyph-name="H" horiz-adv-x="382" d="M333 285Q333 280 329 277T319 272T307 268T298 262L305 215Q311 176 315 139T320 69Q320 43 315 23T295 2Q288 2 283 19T274 59T269 104T267 137Q267 144 266 159T263 192T259 225T256 249Q239 248 210
245T139 230V218Q139 196 141 170T145 116T150 61T152 8Q152 -2 150 -8T141 -15Q129 -15 123 -3T113 25T109 60T106 90Q102 116 100 150T95 221Q91 221 85 223T73 229T63 237T59 246Q59 258 70 265T94 278Q93 287 93 297T93 334Q93 345 93 366T93 415T93 476T94
543Q95 551 99 562T112 574Q119 574 124 569T132 555T136 539T138 524V285Q147 285 162 286T193 288T224 292T250 296L227 506Q226 513 226 521T225 534Q225 554 230 566T247 579Q261 579 264 566T268 528Q269 512 270 497T273 466L296 297Q308 297 320 296T333
285Z" />
<glyph unicode="I" glyph-name="I" horiz-adv-x="519" d="M512 143Q512 124 489 115Q466 106 436 97T377 80T328 66T301 56Q301 54 301 51T302 45L305 21Q305 12 303 7T292 2Q283 2 280 7T274 20T270 36T264 48Q262 48 248 44T213 34T165 21T113 7T66 -3T32 -7Q5
-7 5 10Q5 23 12 29T30 38Q32 39 49 43T92 52T145 65T198 78T238 89T254 96Q254 102 250 118T241 148L235 168Q221 232 213 297T200 425Q198 427 195 427Q190 427 169 417T124 396T80 374T55 364Q48 364 42 370T35 382Q35 390 48 400T80 422T123 444T168 463T205
477T226 482Q234 482 247 485T275 492T305 499T333 502Q346 502 346 493Q346 488 342 485L313 477Q302 474 290 471T267 463T250 453T243 441Q243 416 248 376T261 289T278 194T293 104L472 150Q478 151 484 153Q489 155 494 156T503 157Q512 157 512 143Z" />
<glyph unicode="J" glyph-name="J" horiz-adv-x="366" d="M318 71Q318 17 293 0T209 -18Q189 -18 162 -13T109 4T66 31T48 68Q48 69 49 78T54 98T61 117T71 126Q81 126 82 121T84 102Q84 84 96 70T127 46T165 31T202 26Q215 26 228 27T253 34T270 48T277 72Q277
85 275 98T265 134T243 190T207 280Q160 396 146 453T131 515Q123 514 113 510T93 502T72 493T55 486Q34 478 17 468T-13 448T-35 432T-50 425Q-65 425 -68 439T-71 463Q-71 474 -46 488T17 518T99 547T183 573T249 591T279 598Q286 598 287 594T289 587Q289 581
275 573T241 556T200 539T166 526L155 522Q160 514 164 507T172 489T183 461T202 415Q224 361 245 307T282 207T308 125T318 71Z" />
<glyph unicode="K" glyph-name="K" horiz-adv-x="468" d="M455 135Q455 125 442 119T406 112Q387 112 347 116T261 129T176 151T116 184Q118 176 123 163T134 133Q145 105 154 77T164 31Q164 -1 160 -17T140 -34Q128 -34 123 -24T118 0Q118 1 118 5T119 28Q119
36 118 44T115 58Q99 97 86 136T60 224Q57 234 54 249T47 290T42 353T40 445Q40 487 47 509T64 532Q73 532 79 519T85 493Q85 460 85 442T84 416Q84 385 87 355T94 298Q98 268 104 241Q116 266 130 294T161 351T193 408T224 461Q234 478 246 490T270 502Q278 502
288 496T298 478Q298 475 297 472T295 466Q290 458 284 450T272 434Q256 411 236 382T199 325T169 271T157 231Q157 215 176 203T223 183T284 169T347 160T396 155T419 153Q442 153 448 150T455 135Z" />
<glyph unicode="L" glyph-name="L" horiz-adv-x="384" d="M370 76Q370 69 364 65Q355 59 333 48T285 25T229 0T176 -23T136 -39T118 -46Q110 -46 101 -28T82 20T65 91T51 177T41 268T37 358Q37 422 43 458T58 512T74 534T82 539Q90 539 95 532T100 518Q100 514
96 504T88 476T80 430T76 362Q76 326 79 287T89 210T102 138T118 78T133 37T146 21Q147 21 159 26T189 38T228 53T272 67Q282 70 295 73T321 80T342 85T354 87Q370 87 370 76Z" />
<glyph unicode="M" glyph-name="M" horiz-adv-x="513" d="M519 -54Q521 -60 523 -65Q525 -70 526 -76T528 -87Q528 -94 523 -98T512 -106T499 -110T492 -111Q486 -111 470 -75T436 28T398 185T367 385Q365 362 360 332T343 274T315 229T270 210Q251 210 227 230T181
277T140 333T112 380Q116 336 125 274T155 143Q157 136 159 133T164 125T168 117T170 103Q170 90 160 84T141 78Q136 78 128 93T111 134T93 189T77 250T64 306T59 349Q59 375 61 385T69 400V461Q69 475 76 482T96 490Q106 490 119 473T147 430T180 374T213 318T245
275T275 258Q288 258 300 282T322 347T341 438T354 542Q354 548 353 555T352 572Q352 584 357 598T379 612Q388 612 393 607T401 595T403 580T404 567Q404 559 403 541T401 484Q401 451 406 408T419 316T439 216T464 115T491 23T519 -54Z" />
<glyph unicode="N" glyph-name="N" horiz-adv-x="473" d="M473 39Q473 29 464 21T444 13Q442 13 438 15T432 20Q390 60 343 99T248 179T154 265T66 363Q79 309 101 249T143 135T179 44T194 -5Q194 -17 185 -24T165 -32Q159 -32 152 -20T137 13T120 57T103 106T88
152T77 188L50 269Q41 295 32 322T16 374T4 416T-1 440Q-1 451 2 462T13 474Q18 474 20 472T24 469L36 474Q41 474 53 462T82 429T118 384T156 335T193 290T225 257Q247 237 269 219T313 183T361 143T416 95Q417 94 421 94Q423 94 423 99T423 111Q423 125 415 161T393
246T359 350T319 457T274 551T228 616Q222 622 220 634T217 654Q217 661 226 669T244 678Q256 678 271 654T303 592T337 505T372 408Q392 350 409 294T440 188T462 100T473 39Z" />
<glyph unicode="O" glyph-name="O" horiz-adv-x="403" d="M360 258Q362 245 362 237T363 221Q363 196 357 162T335 98T294 46T229 24Q193 24 161 44T104 97T65 170T50 251Q50 309 57 350T79 423Q79 426 76 429T72 437Q72 442 81 450T104 465T131 478T152 484Q156
484 165 480T190 476Q195 476 200 477T211 478Q232 478 256 459T302 408T339 338T360 258ZM320 219Q320 238 312 273T288 343T250 404T199 430Q197 430 192 430T179 431T166 432T159 433Q143 433 132 418T113 379T101 324T97 262Q97 251 103 220T124 155T166 95T232
69Q259 69 276 85T302 126T316 175T320 219Z" />
<glyph unicode="P" glyph-name="P" horiz-adv-x="356" d="M313 474Q313 409 298 360T263 274T225 207T200 150Q195 132 178 132Q176 132 175 132T172 133Q179 116 193 95T221 51T245 8T256 -28Q256 -36 246 -43T227 -51Q223 -51 221 -46Q211 -10 184 31T129 123T78
238T56 383Q56 417 59 440T80 464Q90 464 94 458T98 445Q98 354 115 285T153 178L170 204Q196 244 215 274T246 334T263 395T269 467Q269 478 267 491T259 514T245 532T225 539Q209 539 177 530T110 506T48 473T14 435Q13 433 11 430T7 427Q0 427 -8 438T-16 457Q-16
475 0 492T40 523T95 548T153 567T203 579T236 584Q252 584 266 575T291 551T307 516T313 474Z" />
<glyph unicode="Q" glyph-name="Q" horiz-adv-x="488" d="M476 96Q476 80 467 64T442 35T406 14T365 6Q356 6 346 8T326 14T310 20T301 25Q288 13 271 5T234 -4Q196 -4 162 21T103 88T64 185T49 300Q49 343 55 393T73 485T100 556T135 584Q139 584 151 581T163
570Q163 567 160 565T154 560L144 550Q156 553 171 556T203 559Q227 559 257 534T312 470T355 383T373 286Q373 209 363 157T331 63Q334 58 348 55T370 52Q386 52 398 58T418 73T432 91T441 108Q446 120 450 120Q459 120 467 114T476 96ZM239 207Q239 188 245 167T259
128T278 98T297 84Q305 96 312 118T325 168T334 224T337 279Q337 321 323 364T287 443T242 500T196 523Q174 523 158 519T121 506Q112 479 107 456T97 409T92 359T90 299Q90 248 103 201T137 118T183 61T234 40Q254 40 267 50Q258 59 245 75T220 111T200 151T191
191Q191 197 191 207T194 228T201 245T214 253Q221 253 225 247T233 234T237 218T239 207Z" />
<glyph unicode="R" glyph-name="R" horiz-adv-x="512" d="M592 -46Q592 -53 587 -61T573 -69Q568 -69 562 -66Q526 -49 478 -39T380 -20T281 -3T197 22Q203 9 209 1T219 -13T227 -24T230 -39Q230 -47 224 -51T212 -55Q200 -55 187 -40T159 -2T132 49T107 105T88
154T77 189L33 365Q33 368 34 373T42 383Q38 391 38 400Q38 428 70 451T147 491T243 517T328 526Q338 526 358 525T397 517T431 499T446 464Q446 443 425 416T371 359T302 298T233 235T180 174T158 119Q158 100 174 86T216 60T270 41T326 28T372 21T396 18Q409
18 441 15T506 5T566 -15T592 -46ZM399 463Q399 470 392 475T374 484T349 489T322 491Q302 491 274 485T218 470T165 452T130 437Q109 425 89 411T69 382Q69 380 72 378T75 371Q75 365 81 341T95 286T112 225T130 177Q171 235 218 278T306 355T372 414T399 463Z"
/>
<glyph unicode="S" glyph-name="S" horiz-adv-x="456" d="M441 145Q441 100 425 75T378 27Q370 22 356 15T325 2T289 -8T254 -12Q209 -12 186 -3T163 20Q163 34 171 43T185 53L196 45Q201 40 210 35T239 29Q258 29 285 35T336 55T378 89T396 135Q396 158 362 177T253
204Q215 207 178 213T112 231T64 260T46 304Q46 329 60 352T94 394T137 429T174 454Q186 461 207 472T253 494T302 512T344 520Q364 520 371 509T378 478Q378 461 374 442T365 405T356 374T349 356Q345 347 340 344T333 341Q329 341 329 346Q329 349 330 357T334
378T338 404T340 432Q340 454 338 464T322 474Q308 474 284 467T235 448Q208 436 183 417T137 378T105 340T92 310Q92 298 108 288T150 269T207 255T268 246Q293 243 323 238T379 222T423 193T441 145Z" />
<glyph unicode="T" glyph-name="T" horiz-adv-x="427" d="M592 549Q592 542 587 538T576 533Q567 533 548 531T506 527T462 522T427 517Q423 517 411 516T383 514T352 510T327 507Q316 505 295 500T257 490Q251 488 246 487T238 485Q234 484 231 483L285 292Q288
283 295 263T311 219T331 169T350 121Q355 108 361 89T372 51T380 15T384 -7Q384 -21 376 -36T355 -52Q343 -52 343 -35V-28Q343 -25 343 -21T344 -12Q344 -4 338 15T323 59T304 111T284 163T267 205T258 229Q255 237 251 252T240 286T228 326T215 369Q200 418
182 476Q177 475 150 472T88 464T23 457T-19 453Q-44 453 -51 461T-59 481Q-59 489 -55 497T-44 506Q-36 506 -32 504T-20 501Q-18 501 0 503T44 508T97 514T146 519Q151 519 156 519T167 521Q172 522 177 522Q177 525 180 535T188 546Q198 546 204 539T216 528Q223
529 237 532T268 539T300 544T327 548L444 555Q459 556 478 557T517 561T550 564T569 566Q578 565 585 560T592 549Z" />
<glyph unicode="U" glyph-name="U" horiz-adv-x="399" d="M440 -46Q440 -58 434 -61T420 -65Q414 -65 404 -63Q399 -62 390 -54T369 -34Q357 -22 343 -7L293 50Q291 47 284 38T267 18T242 -1T212 -9Q201 -9 186 -3T154 16T123 45T96 83Q82 110 73 139T58 199T50
258T48 314Q48 351 51 367T75 383Q83 383 87 378T92 366Q92 310 100 253T123 148T160 70T213 40Q226 40 236 49T252 72T262 97T266 115Q260 129 254 152T242 204T234 262T231 320Q231 363 231 390T235 433T244 454T261 460Q267 460 272 457T281 449T287 441T289
436Q289 432 287 430T285 423Q285 415 287 400T293 369Q299 337 304 296T310 201V159Q310 151 318 127T357 55Q377 23 394 4T423 -26Q430 -32 435 -37T440 -46ZM287 288Q286 294 284 303T280 321T276 336T274 342Q274 331 274 316T276 285T280 255T285 230Q285
237 286 244Q286 250 286 257T287 273V288Z" />
<glyph unicode="V" glyph-name="V" horiz-adv-x="334" d="M295 119Q295 106 291 84T281 39T267 1T252 -15Q241 -15 220 4T175 51T129 107T93 156Q76 182 63 209T40 261T25 307T20 344Q20 357 27 366T41 375Q50 375 54 369T61 351T68 323T81 287Q91 263 109 232T150
168T194 108T236 65Q242 82 245 110T248 166Q248 192 245 226T237 297T224 369T210 434L179 549Q179 559 189 565T208 572Q221 572 226 567T232 550T234 523T240 485Q250 438 259 385T277 281T290 187T295 119Z" />
<glyph unicode="W" glyph-name="W" horiz-adv-x="559" d="M519 112Q519 78 501 54T437 30Q406 30 375 41T313 70T256 112T206 162Q204 153 200 136T190 102T177 73T161 60Q148 60 133 73T102 107T72 157T46 215Q17 298 9 345T1 397Q1 403 3 408T12 413Q23 413
28 407T36 390Q41 369 49 342T68 285T90 229T113 179T134 144T151 130Q158 130 161 141T167 168T169 197T170 216Q165 225 163 237T160 257Q160 270 166 279T179 288Q183 288 184 287T189 285Q192 285 194 285T199 286Q201 286 203 285T209 276Q222 242 246 206T300
141T365 93T436 74Q449 74 460 82T471 105Q471 147 463 191T440 281T406 374T367 472Q350 514 335 538T308 577T289 601T282 625Q282 642 294 650T321 658Q329 658 339 643T360 603T382 548T404 488Q420 444 440 394T477 293T507 195T519 112Z" />
<glyph unicode="X" glyph-name="X" horiz-adv-x="412" d="M407 47Q407 36 401 34T389 32Q387 32 363 54T305 106T237 166T182 212Q183 198 185 179T189 141T192 108T194 87Q194 72 188 61T167 50Q157 50 155 52T150 66Q147 81 144 106T139 160T136 216T133 260Q128
266 113 284T79 327T38 381T-2 437T-32 486T-44 519Q-44 527 -36 538T-19 550Q-11 550 4 524T41 463T86 392T134 333Q136 352 136 369T136 402Q136 410 137 431T140 478T145 533T155 584T170 623T192 638Q200 638 202 626T204 610Q204 573 200 539T190 470T181
394T176 305Q176 302 176 299T178 291Q182 282 201 264T245 224T299 176T352 127T391 82T407 47Z" />
<glyph unicode="Y" glyph-name="Y" horiz-adv-x="314" d="M317 335Q317 321 311 315T296 309Q287 309 279 312T257 320L242 326Q240 321 240 314T239 301Q239 266 242 225T249 143T258 63T268 -7T275 -60T278 -88V-113Q278 -124 276 -133T265 -142Q250 -142 240
-118T223 -62T213 -1T210 39Q210 46 208 73T202 133T197 201T194 260Q194 270 194 282T193 306V337Q193 353 171 370T116 407T50 454T-6 518Q-9 519 -9 527Q-9 541 -3 552T13 563Q16 563 22 556T37 537T58 513T85 487Q95 478 113 465T148 438T179 416T193 406Q197
406 198 414T199 424L204 484Q209 535 216 576T224 649Q224 652 222 661T220 673Q220 679 224 682T233 688Q239 691 247 692Q261 692 267 682T273 662Q273 626 269 592T259 524T249 455T244 380Q244 374 251 368T268 356T292 345T317 335Z" />
<glyph unicode="Z" glyph-name="Z" horiz-adv-x="563" d="M562 79Q562 68 550 62T523 56Q520 56 514 56T501 58T489 60T484 61Q450 61 403 50T307 25T209 0T124 -12Q78 -12 57 -1T36 48Q36 73 53 107T95 178T150 253T205 326T247 387T264 431Q264 444 245 451T203
458Q191 458 184 457T163 454T124 451T51 450Q36 450 24 457T11 475Q11 482 20 492T35 504Q38 504 51 500T73 496Q116 496 144 495T193 492Q203 491 224 491T266 488T304 474T320 441Q320 423 309 398T279 345T238 287T193 229Q170 199 152 176T121 133T101 94T94
57Q94 53 98 51T108 47T120 46T130 45Q146 45 192 54T297 74T420 95T535 104Q546 104 554 100T562 79Z" />
<glyph unicode="[" glyph-name="bracketleft" horiz-adv-x="369" d="M156 437Q145 419 134 383T113 307T99 228T93 167Q93 111 96 81T114 51Q121 51 133 52T161 57T191 64T217 74Q226 73 228 68T230 61Q230 54 216 45T181 29T140 16T106 10Q98 10 87 11T71 19Q62
37 58 72T53 168Q53 191 57 225T70 295T88 367T111 429Q104 431 99 432T94 443Q94 460 104 466T131 479Q134 481 141 488T163 496Q167 496 171 495T178 493Q183 493 193 496T215 502T237 509T253 512Q261 512 265 507T269 495Q269 488 257 482T228 470T191 456T156
437Z" />
<glyph unicode="\" glyph-name="backslash" horiz-adv-x="307" d="M34 483Q38 485 41 486T47 488Q51 488 57 479T72 454T89 417T106 371Q119 331 135 285T167 191T199 101T228 25Q256 -46 256 -48Q256 -50 253 -60T246 -71Q244 -71 236 -60Q198 -10 170 57T117
195T72 336T29 463Q28 463 28 465V471Q28 481 34 483Z" />
<glyph unicode="]" glyph-name="bracketright" horiz-adv-x="548" d="M389 68Q389 60 382 53T367 40T351 29T344 20Q344 15 345 10T346 0Q346 -17 335 -17Q326 -17 323 -13T319 -3T316 8T311 17Q307 17 293 12T261 1T221 -10T180 -15Q155 -15 155 0Q155 11 162
17T179 26Q180 26 199 30T241 41T283 53T302 64Q302 69 299 80T293 102T286 123T283 136Q276 169 269 209T257 290T247 372T239 445Q237 448 232 448Q227 448 218 445T196 435T170 422T147 409Q143 407 140 407Q134 407 128 412T121 423Q121 435 140 448T185 473T233
492T264 500Q275 500 278 498T282 490Q282 485 281 477T279 461Q279 459 280 448T282 423T285 393T289 367L337 70Q348 72 362 76T382 80Q389 80 389 68Z" />
<glyph unicode="^" glyph-name="asciicircum" horiz-adv-x="576" d="M218 438Q224 467 227 474T242 481Q252 481 258 474T272 454T294 420T334 372Q341 363 366 345T418 307T467 269T489 241Q489 236 485 229T474 222Q465 222 449 232T413 258T369 294T324 334T283
372T251 403Q236 343 214 282T168 164L136 82Q132 80 129 78T122 76Q117 76 111 80T104 90Q104 98 110 118T126 163T144 211T160 250Q166 266 174 290T190 340T206 392T218 438Z" />
<glyph unicode="_" glyph-name="underscore" horiz-adv-x="319" d="M339 -45Q339 -50 335 -57T324 -65Q321 -66 291 -69T213 -72Q206 -72 184 -71T136 -69T85 -66T46 -64Q41 -64 25 -65T0 -66Q-19 -66 -19 -51Q-19 -42 -14 -38T0 -31T16 -29T32 -28Q48 -28 74
-29T127 -31T174 -34T203 -35Q217 -35 233 -34T265 -32T295 -29T319 -27Q330 -27 334 -33T339 -45Z" />
<glyph unicode="`" glyph-name="grave" horiz-adv-x="269" d="M57 548Q60 551 64 551Q69 551 76 548T91 539Q98 534 112 520T140 489T166 458T182 441Q183 440 187 439T196 437T205 433T209 428Q209 420 199 409T181 398Q175 398 162 405Q148 412 130 431T96 473T68
515T56 545Q56 546 56 546T57 548Z" />
<glyph unicode="a" glyph-name="a" horiz-adv-x="487" d="M515 208Q515 190 499 164T454 112T389 70T312 52Q294 52 274 58T235 75T201 103T179 141Q173 135 165 121T146 93T124 68T99 57Q86 57 78 70T64 100T57 132T55 149Q55 161 62 194T83 264T118 328T169
356Q180 356 183 347T187 328V298Q192 294 197 293T207 289T214 281T217 265Q217 258 216 253T215 242Q215 216 219 191T235 147T268 115T324 102Q368 102 398 120T449 161T482 202T502 221Q515 221 515 208ZM164 252Q164 256 162 259T160 266Q160 270 162 273T164
281Q164 284 162 285T160 289Q151 287 142 272T124 237T110 197T105 163Q105 156 109 140T118 119Q135 154 149 187T164 252Z" />
<glyph unicode="b" glyph-name="b" horiz-adv-x="331" d="M278 199Q278 154 268 120T242 64T212 30T186 19Q172 19 159 31T146 55Q146 71 159 71Q164 71 169 68T178 62Q195 76 210 108T226 199Q226 223 221 242T210 274T196 294T186 301Q176 301 167 281T150 236T139
186T134 152Q135 146 136 141Q137 136 138 131T139 121Q139 102 126 87T101 72Q95 72 92 80T86 102T83 129T79 154Q71 172 58 211T31 294T4 381T-15 448Q-29 502 -36 542T-48 613T-54 666T-55 703Q-55 712 -48 717T-34 722Q-25 722 -21 719T-16 704T-13 672T-7
616Q-5 599 0 569T15 502T34 425T56 347T79 279T101 230Q110 266 123 295Q134 319 150 339T189 360Q198 360 213 352T242 325T267 275T278 199Z" />
<glyph unicode="c" glyph-name="c" horiz-adv-x="368" d="M328 182Q328 172 325 162T319 144Q317 141 301 124T260 87T205 53T146 37Q129 37 112 43T79 62T55 96T45 145Q45 193 61 232T93 294Q100 305 111 316T134 337T154 353T168 359Q177 359 184 354T192 344Q192
336 188 331T175 319T156 302T133 274Q109 241 98 207T86 146Q86 120 105 105T146 89Q184 89 213 106T264 144T298 182T317 199Q328 199 328 182Z" />
<glyph unicode="d" glyph-name="d" horiz-adv-x="360" d="M323 161Q323 156 319 152T313 142Q313 131 317 121T322 97Q322 84 314 84Q304 84 300 82T284 77Q278 77 271 88Q267 93 264 100Q264 101 259 96T241 85T207 73T152 67Q124 67 103 79T69 112T49 157T42
209Q42 233 47 254T63 292T88 319T123 329Q142 329 161 317T195 291T219 266T229 254Q215 332 204 395Q199 422 195 448T186 496T180 531T177 549Q176 555 175 570T173 603T171 634T169 652Q166 662 162 677T157 694Q157 699 162 706T175 714Q181 714 186 713T195
707T202 692T209 662Q210 652 215 624T225 563T235 500T242 456Q247 418 255 374T273 288T291 216T307 173Q309 169 315 168T323 161ZM249 141Q248 144 237 166T208 215T169 263T127 284Q110 284 100 258T89 198Q89 160 111 137T162 114Q186 114 212 122T249 141Z"
/>
<glyph unicode="e" glyph-name="e" horiz-adv-x="349" d="M318 105Q319 103 319 99Q319 93 310 81Q307 77 297 68T270 50T229 34T171 27Q148 27 126 37T87 68T59 119T48 191Q48 230 58 264T83 324T118 365T155 380Q171 380 187 374T217 357T239 335T247 309Q247
294 234 278T201 249T163 227T133 218Q127 218 123 223T118 237Q118 251 130 259T158 273T185 289T198 314Q198 316 193 324T166 332Q156 332 143 321T118 290T98 244T90 186Q90 160 99 139T124 104T159 81T200 73Q215 73 232 79T265 93T292 107T307 114Q310 114
313 111T318 105Z" />
<glyph unicode="f" glyph-name="f" horiz-adv-x="391" d="M367 717Q368 715 368 710T368 699Q368 692 363 692Q361 692 358 693T353 695Q335 703 310 715T252 728Q216 728 194 701T161 639T146 569T142 520Q142 509 145 486T155 437T169 392T185 366Q191 366 206
367T232 368Q249 368 264 365T295 362Q299 362 307 362T323 361T338 358T344 351Q344 346 337 342T321 336T303 332T289 331Q284 331 276 331T259 333T241 334T226 335Q210 335 207 332T203 318Q203 303 216 278T246 223T275 163T289 106Q289 101 287 88T280 60T267
35T249 24Q241 24 235 28T228 44Q228 60 236 74T245 104Q245 112 238 131T219 173T195 223T171 270T151 306T142 321Q122 314 101 307T63 286Q56 279 50 279Q40 279 32 287T23 305Q23 316 29 322T42 332Q51 337 70 343T108 353Q115 355 121 356T127 363Q124 373
119 389T108 429T98 480T94 542Q94 578 102 618T129 691T176 746T243 768Q261 768 283 765T323 755T354 739T367 717Z" />
<glyph unicode="g" glyph-name="g" horiz-adv-x="331" d="M288 88Q288 77 280 73T272 62Q271 63 276 51T285 26Q292 -1 297 -21T306 -58T312 -92T314 -130Q314 -151 307 -173T287 -212T255 -240T212 -251Q175 -251 154 -236T121 -202T107 -165T104 -140Q104 -103
123 -66T165 1T207 51T226 74L215 107Q205 95 198 81T182 54T162 33T133 24Q115 24 97 35T65 68T43 121T34 193Q34 216 41 250T63 317T100 371T153 394Q170 394 184 388T199 373Q199 365 196 360T188 350Q185 352 182 354T172 356Q150 356 133 337T103 289T85 229T78
175Q78 124 95 98T131 71Q140 71 150 84T170 114T187 146T195 164Q197 174 197 187Q197 198 197 211T196 239Q196 265 200 282T220 300Q236 300 243 291T250 268Q250 259 250 247T249 223T249 203T248 192Q248 186 249 175T252 152T255 131T258 118Q259 115 261
109T265 100Q266 102 269 104T274 109Q279 106 283 98T288 88ZM254 -39Q250 -23 245 -7T235 26Q218 5 203 -14T175 -53T155 -92T147 -136Q147 -167 164 -187T203 -207Q226 -207 246 -190T267 -141Q267 -120 266 -106T264 -82T260 -62T254 -39Z" />
<glyph unicode="h" glyph-name="h" horiz-adv-x="384" d="M360 185Q365 180 365 179Q365 177 360 167T345 146T326 127T305 118Q284 118 271 126T250 148T237 176T229 206Q227 213 225 213Q222 213 213 192T194 145T174 98T161 76Q143 76 131 91T111 127T99 169T94
203Q91 230 81 293T64 446Q62 465 60 480T54 515T49 558T47 617Q47 619 48 630T51 654T57 677T68 687Q75 687 81 679T91 659T98 638T100 624Q100 609 98 596T96 572Q96 557 98 534T105 487T112 441T117 404Q117 403 119 390T123 358T128 316T134 272T139 234T143
210Q143 207 144 202T147 189T151 176T156 167Q162 179 171 204T191 255T211 300T228 320Q236 320 241 317T254 312Q264 308 264 302T266 286Q268 274 272 255T283 217T297 185T313 172Q317 172 324 182T343 194Q345 194 350 192T360 185Z" />
<glyph unicode="i" glyph-name="i" horiz-adv-x="155" d="M99 460Q99 458 92 452T76 440T56 428T40 423Q36 423 30 423T17 427T5 435T0 450Q0 464 10 476T36 489Q39 489 49 487T71 480T90 471T99 460ZM132 86Q132 79 122 74T106 69Q96 69 88 82T74 112T64 144T58
166Q55 176 50 190T41 217T33 240T30 251Q30 265 35 277T49 289Q58 289 68 275T87 240T105 193T119 145T128 106T132 86Z" />
<glyph unicode="j" glyph-name="j" horiz-adv-x="155" d="M89 456Q89 454 84 448T71 436T56 424T44 419Q28 419 14 426T-1 445Q-1 450 0 457T5 470T15 481T30 486Q36 486 46 484T65 477T82 467T89 456ZM164 -94Q164 -108 156 -119T137 -139T114 -151T94 -156Q70
-156 39 -149T-20 -125T-67 -83T-86 -20Q-86 -16 -84 -13T-77 -9Q-70 -9 -60 -24T-31 -59T15 -93T87 -109Q101 -109 106 -106T112 -86Q112 -70 108 -51T97 -14T86 22T77 51Q76 54 71 76T59 128T48 186T43 227Q43 234 45 246T58 258Q63 258 69 246T81 215T93 174T103
133T111 99T115 82Q117 74 125 53T141 6T157 -48T164 -94Z" />
<glyph unicode="k" glyph-name="k" horiz-adv-x="398" d="M395 107Q395 99 393 96T383 90Q374 87 361 84T331 77T299 71T268 68Q251 68 231 70T191 76T157 86T134 100Q139 79 143 58T149 16Q149 11 147 8T133 4Q128 4 124 6T116 17Q107 37 101 54T91 90T81 128T69
172Q58 211 46 255T24 340T8 412T2 457Q2 463 2 473T5 492T12 508T25 515Q30 515 35 500T45 466T53 431T57 413Q61 391 66 365T78 311T91 260T106 218Q107 228 113 247T129 288T151 333T177 376T204 407T230 419Q249 419 256 414T264 402Q264 396 247 379T209 333T171
266T154 180Q154 163 163 151T188 130T223 118T262 113Q279 113 299 114T336 116T366 119T382 120Q387 120 391 117T395 107Z" />
<glyph unicode="l" glyph-name="l" horiz-adv-x="211" d="M173 29Q173 21 167 17T153 13Q144 13 135 30T116 73T99 129T85 186T76 231T72 251Q72 255 69 272T60 325T48 418T34 561Q34 570 37 584T51 598Q65 598 72 579T84 532T91 474T96 420Q100 388 103 362T110
311T119 257T133 195L173 29V29Z" />
<glyph unicode="m" glyph-name="m" horiz-adv-x="524" d="M484 94Q484 86 479 80T467 71T453 65T440 63Q419 63 404 85T379 135T365 187T360 213Q354 202 348 176T332 124T310 77T275 56Q265 56 256 68T239 99T224 142T209 189T194 232T180 265Q174 250 170 224T162
170T157 113T155 64Q155 50 148 44T132 38Q121 38 110 52T88 90T68 142T51 200T39 255T35 300Q35 313 36 324Q37 333 37 341T38 350Q38 353 37 354T35 359Q35 362 42 368T58 375Q72 375 76 369T81 355Q81 352 81 346T80 319Q80 305 85 277T97 220T111 167T124 136Q126
140 126 145T128 154L139 236Q143 267 155 301T182 355Q187 363 193 363Q199 363 204 354Q221 326 229 299T244 245T259 192T286 138Q294 151 306 180T330 240T354 292T371 315Q374 315 381 314T391 313Q400 313 406 293T416 245T425 190T436 148Q440 138 448 129T464
112Q474 103 484 94Z" />
<glyph unicode="n" glyph-name="n" horiz-adv-x="352" d="M340 123Q340 117 336 111T327 100T315 92T303 88Q286 88 260 95T217 119Q200 136 187 159T158 229Q147 185 133 142T86 63Q84 61 80 61Q73 61 65 68T57 82Q57 89 56 114T52 171T49 235T47 289Q47 299
48 315T54 344Q55 346 61 352T76 358Q83 358 84 349T85 329V171Q85 166 86 157T91 144Q102 168 111 200T130 262T148 312T166 333Q176 333 182 329T192 313Q197 284 200 262T207 221T220 188T244 159Q258 146 275 140T306 134Q312 134 319 136T329 139Q333 139
336 132T340 123Z" />
<glyph unicode="o" glyph-name="o" horiz-adv-x="280" d="M219 216Q219 194 213 174T197 139T174 116T144 107Q116 107 100 123T76 160T65 202T62 235Q62 253 67 275T82 317T104 349T129 362Q132 362 138 360T152 354T164 344T172 330Q183 329 194 322T206 311Q214
285 216 259T219 216ZM174 234Q174 249 171 265T159 299Q157 298 154 298Q150 298 148 299T143 300Q131 300 124 294T114 277T109 254T108 231Q108 220 109 207T113 181T123 161T139 152Q149 152 156 162T167 187T172 214T174 234Z" />
<glyph unicode="p" glyph-name="p" horiz-adv-x="377" d="M361 289Q361 263 347 239T311 195T265 157T219 126Q199 112 186 103T173 89Q173 76 176 53T183 2T192 -55T199 -108Q199 -109 200 -117T204 -135T208 -153T210 -164Q210 -171 210 -179T207 -195T199 -208T186
-213Q175 -213 170 -204T165 -185Q165 -183 165 -181T166 -176Q166 -165 158 -117T140 -3T122 140T114 285Q114 290 115 296T116 308Q106 307 87 299T48 280T15 256T0 233H-7Q-10 233 -14 237T-22 246T-29 256T-32 263Q-32 284 -7 302T55 335T138 358T223 367Q262
367 288 358T331 337T354 311T361 289ZM312 292Q312 302 287 312T228 323Q198 323 184 321T165 317Q163 301 162 279T161 234Q161 210 162 188T166 150Q180 159 204 174T253 209T294 250T312 292Z" />
<glyph unicode="q" glyph-name="q" horiz-adv-x="295" d="M276 -93Q276 -96 275 -103T272 -116T264 -128T251 -134Q228 -134 221 -120T214 -89Q214 -85 212 -76T208 -56T204 -34T202 -15Q202 0 201 19T197 57T192 95T187 127L184 130Q173 123 165 113T148 94T130
79T107 73Q89 73 75 85T52 115T39 149T34 177Q34 199 43 227T70 279T110 321T163 338Q174 338 183 332T199 318T212 300T222 286Q233 273 239 264T245 240Q245 237 242 222T239 197Q239 156 241 114T248 35T256 -29T262 -66Q264 -74 270 -76T276 -93ZM189 243Q188
253 182 268T155 283Q138 283 124 269T100 235T85 197T80 169Q80 167 81 160T85 145T92 131T101 125Q113 125 128 141T156 179T179 219T189 243Z" />
<glyph unicode="r" glyph-name="r" horiz-adv-x="316" d="M276 305Q276 298 270 294T256 286T240 282T227 280Q212 280 207 282T199 284Q174 284 159 280T136 267T125 245T122 212Q122 180 124 161T129 130T134 112T137 99Q137 91 129 82T113 73Q101 73 92 94T76
145T65 204T61 248Q61 265 64 280T72 307T83 326T95 333Q100 333 103 330T108 322T112 314T119 310Q128 310 148 319T197 328Q224 328 237 327T264 320Q267 319 271 316T276 305Z" />
<glyph unicode="s" glyph-name="s" horiz-adv-x="311" d="M265 132Q265 115 254 103T225 82T186 68T146 61T113 58T94 57Q72 57 60 64T48 89Q48 95 49 99T57 104Q60 104 67 103T78 101Q82 101 103 102T149 108T193 119T213 139Q213 141 193 151T131 187Q99 207
86 227T73 283Q73 305 82 319T108 341T146 352T192 356Q194 356 204 354T227 348T248 337T258 322Q258 320 255 316T243 301Q240 302 233 304T216 308T196 312T180 314Q154 314 138 305T122 268Q122 255 132 244T159 224T193 205T228 184T254 161T265 132Z" />
<glyph unicode="t" glyph-name="t" horiz-adv-x="319" d="M305 452Q292 437 268 423T220 396T178 376T160 364Q160 361 164 346T173 311T185 268T195 229Q197 219 200 203T205 171T210 143T212 129Q212 114 207 98T191 82Q185 82 180 87T171 98T165 111T163 120Q163
122 163 126T164 135Q164 154 158 190Q156 201 150 224T138 271Q131 299 122 332Q118 346 117 346Q110 346 94 338T56 317T12 290T-31 263T-65 242T-83 233Q-96 233 -104 242T-112 262Q-112 268 -96 279T-55 305T-2 334T51 361T92 381T109 389Q100 435 94 471Q89
502 85 528T80 556Q80 569 85 575T98 582Q109 582 112 567Q123 513 132 471T151 403Q160 405 182 414T228 435T271 454T294 463Q300 463 301 459T305 452Z" />
<glyph unicode="u" glyph-name="u" horiz-adv-x="369" d="M369 166Q369 157 357 147T329 129T297 114T272 108Q263 108 253 113T233 125T216 138T207 146Q204 143 198 134T184 115T166 96T146 88Q120 88 101 116T70 180T51 249T44 295Q44 302 51 306T63 311Q77
311 82 302T87 281Q87 272 92 249T106 202T123 160T139 141Q152 141 161 157T177 195T186 236T189 262Q189 263 189 268T191 280T192 291T193 298Q193 305 190 307T187 318Q187 324 193 329T219 335Q227 335 231 331T238 320T240 309T241 301Q241 300 240 287T239
259T237 229T236 212Q236 209 239 200T246 182T257 165T270 157Q282 157 292 160T312 168T330 176T345 180Q354 180 361 176T369 166Z" />
<glyph unicode="v" glyph-name="v" horiz-adv-x="282" d="M234 352Q234 349 229 326T219 274Q216 257 210 224T203 122Q203 120 203 112T200 94T192 78T177 70Q168 70 157 78Q132 96 111 120T75 172T52 232T44 295Q44 299 49 302T58 306Q73 306 81 289T98 248T118
198T153 152Q156 156 158 167T161 186Q162 193 164 213T168 257T172 301T174 330Q174 336 175 344T179 359T189 371T205 376Q210 376 222 370T234 352Z" />
<glyph unicode="w" glyph-name="w" horiz-adv-x="387" d="M342 440Q346 439 346 434Q346 427 339 420T332 403Q332 401 332 388T331 359T331 329T330 313V214Q330 213 329 200T326 169T321 132T315 98Q314 94 310 92T300 89T289 87T283 86Q272 86 260 99T236 128T217
158T208 174Q204 160 199 146T188 119T175 99T158 91Q146 91 133 103T107 134T81 176T60 222T46 263T40 293Q40 297 44 303T55 309Q69 309 75 300Q76 299 81 282T97 242T120 195T151 153Q158 166 162 182T170 213T174 240T175 261Q173 269 172 277Q171 284 171
291T170 303Q170 328 190 328Q205 328 213 319T225 297T230 272T234 255Q242 232 248 212T271 171Q275 174 277 181T281 197T282 211T282 221V420Q282 426 287 431T299 440T312 446T322 449Q327 449 331 446T342 440Z" />
<glyph unicode="x" glyph-name="x" horiz-adv-x="367" d="M332 93Q332 74 321 67T296 60Q273 60 244 80T183 127Q182 125 178 106T166 63T147 21T122 2Q112 2 106 9T100 20Q100 27 107 46T122 88T137 131T144 160Q144 164 128 185T93 234T58 295T42 354Q42 361
48 368T59 375Q65 375 75 371T88 358Q98 325 114 288T162 215Q165 226 169 245T178 286T188 330T199 370T210 399T220 410Q225 410 235 407T246 392Q246 392 243 376T235 336T224 287T212 239Q211 236 209 228T204 211T199 195T197 185Q197 176 211 164T244 140T278
120T299 112Q302 112 307 113T315 114Q323 114 327 105T332 93Z" />
<glyph unicode="y" glyph-name="y" horiz-adv-x="282" d="M249 468Q236 399 225 335Q220 308 215 279T206 221T198 167T192 120Q188 88 186 47T182 -31Q180 -74 180 -118Q180 -127 178 -138T176 -160Q176 -170 172 -177T158 -184Q150 -184 146 -172T138 -143T134
-110T133 -86Q133 -78 133 -67T134 -33T139 26T148 122Q148 123 135 132T102 154T62 184T27 215Q25 217 21 224T17 241Q17 246 22 251T33 257Q37 257 41 253Q64 233 94 209T153 164Q155 182 161 219T175 298T188 381T198 445Q198 449 200 458T206 476T215 491T226
498Q229 498 239 493T249 468Z" />
<glyph unicode="z" glyph-name="z" horiz-adv-x="405" d="M406 205Q406 197 405 189T398 179Q378 170 346 164T287 146Q270 139 245 127T193 103T141 83T100 74Q87 74 75 84T63 105Q63 125 81 153T124 212T172 269T206 314Q205 314 203 315T197 317Q166 307 139
299Q116 292 92 287T52 281Q42 281 37 290T31 310Q31 313 32 316T39 319Q52 322 78 329T135 343T192 356T235 362Q246 362 258 354T278 332L129 141L123 129Q123 125 126 125Q134 125 148 132T188 152T254 183T355 222Q365 225 374 225Q389 225 397 218T406 205Z"
/>
<glyph unicode="{" glyph-name="braceleft" horiz-adv-x="423" d="M91 244Q91 260 108 276T147 306T186 328T208 338Q213 340 218 345T224 353Q224 354 205 359T163 376T121 410T102 469Q102 492 113 517T146 563T197 598T267 612Q280 612 295 610T322 602T343
589T351 569Q351 563 348 560T339 552Q327 563 312 569T272 575Q240 575 217 563T180 532T158 494T151 459Q151 443 160 433T184 415T216 403T247 392T271 378T281 358Q281 344 265 331T228 305T187 281T158 261Q175 263 195 268T235 278T269 288T291 293Q305 293
309 288T314 270Q314 265 304 245T280 201T253 154T234 121Q228 110 217 90T195 50T175 14T167 -5Q167 -12 170 -14T176 -16Q183 -16 206 -8T256 9T306 26T336 34Q338 34 342 28T347 17Q347 12 324 0T267 -26T200 -50T143 -61Q130 -61 120 -53T110 -31Q110 -17
119 5T142 54T173 109T205 163T233 207T250 236Q226 228 199 223T131 218Q116 218 104 222T91 244Z" />
<glyph unicode="|" glyph-name="bar" horiz-adv-x="405" d="M271 -286Q270 -300 249 -300Q240 -300 233 -282T219 -238T207 -180T199 -121T194 -75T192 -54Q192 -48 190 -12T186 80T180 205T175 347T170 488T168 614V800Q168 810 173 822T189 835Q203 833 207
812T211 762Q211 755 211 745T211 710T210 641T210 522Q210 501 212 452T217 340T224 206T232 72T240 -43T247 -117L271 -286V-286Z" />
<glyph unicode="}" glyph-name="braceright" horiz-adv-x="461" d="M357 371Q357 352 342 331T307 291T273 256T257 232Q257 231 268 231T296 230T332 223T369 207T397 175T408 123Q408 99 398 72T367 20T315 -20T240 -36Q223 -36 207 -30T190 -7Q190 -3 192 0T198
9Q216 -1 237 -1Q271 -1 294 12T332 44T352 84T358 122Q358 147 347 159T318 177T281 184T243 187T215 195T203 217Q203 231 215 247T244 280T276 311T297 337Q275 328 254 316T216 294T185 276T166 269Q160 269 155 274T149 290Q149 297 154 319T165 368T178 417T187
452Q190 464 195 485T205 528T215 567T219 590Q219 596 216 598T210 600Q207 600 187 587T142 557T96 526T66 510Q64 509 59 513T51 523Q51 527 73 547T125 591T186 634T238 653Q252 653 261 644T270 613Q270 596 266 571T254 519T239 463T224 409T210 365T202
337Q213 341 227 350T258 367T294 382T333 389Q341 389 349 385T357 371Z" />
<glyph unicode="~" glyph-name="asciitilde" horiz-adv-x="562" d="M516 235Q516 217 509 195T488 155T451 124T399 111Q375 111 352 123T306 154T265 194T231 234T207 264T194 277Q185 277 166 263T128 231T94 199T78 184Q67 175 58 175Q53 175 51 179T48 188Q48
200 67 222T113 266T164 304T200 321Q217 321 239 294T287 235T340 175T396 148Q415 148 429 155T452 175T466 201T471 228Q471 231 470 235T469 242Q473 244 484 248T496 252Q505 252 510 246T516 235Z" />
<glyph unicode="&#xa0;" glyph-name="uni00A0" horiz-adv-x="0" />
<glyph unicode="&#xa1;" glyph-name="exclamdown" horiz-adv-x="261" d="M51 496Q51 507 57 518T74 530Q87 530 98 517T110 487Q110 481 108 472T95 462Q91 462 84 463T70 467T57 478T51 496ZM189 -3Q189 -11 183 -15T169 -19Q155 -19 146 -3T130 34T122 72T119
92Q119 94 117 110T113 151T107 203T102 258T97 305T95 335Q95 340 95 348T96 363T101 376T109 382Q117 382 124 363T137 316T147 258T154 204Q162 140 171 85T189 -3Z" />
<glyph unicode="&#xa2;" glyph-name="cent" horiz-adv-x="368" d="M375 174Q370 165 362 158T349 145Q347 143 335 140T306 132T266 124T222 121Q198 121 175 127T135 145T106 177T95 225Q95 239 98 253T111 282Q133 321 160 345T216 384T269 403T313 409Q326
409 332 401T339 386Q339 378 332 375T314 369T286 363T252 351Q203 328 172 296T140 237Q140 216 151 203T178 181T212 169T245 165Q267 165 287 169T323 179T352 189T370 194Q375 194 377 191T379 184Q379 179 375 174ZM384 588Q384 586 379 573T365 542T346
504T326 466T308 437T296 425Q286 425 283 433T280 450Q280 459 282 467Q283 474 293 495T316 540T343 582T368 601Q375 601 379 597T384 588ZM185 57Q182 39 173 12T153 -41Q141 -71 127 -104Q125 -108 119 -111T104 -114Q93 -114 90 -108T87 -94Q87 -78 93 -59T109
-17T129 28T147 76Q150 87 156 100T173 113Q182 113 185 107T189 90Q189 83 188 75T185 57Z" />
<glyph unicode="&#xa3;" glyph-name="sterling" horiz-adv-x="436" d="M272 196Q272 191 259 184T225 169T180 153T133 139Q141 110 153 85T168 30Q189 35 215 40T266 50T315 57T355 60Q360 60 371 59T382 50Q382 36 370 30T331 17T265 4T168 -20Q165 -48 154
-65T120 -83Q104 -83 95 -76T85 -50Q85 -31 91 -14T118 15Q116 37 105 61T85 127Q80 125 77 125T73 125Q55 125 50 132T45 156Q45 169 48 172T55 176Q60 176 63 173T72 169Q75 169 78 170Q77 181 77 193T76 219Q76 255 84 292T111 360T158 410T225 430Q249 430
272 424T313 408T341 384T352 355Q352 348 347 348Q339 348 327 354T301 369T270 383T234 390Q210 390 193 379T163 349T143 308T131 265T126 225T124 197V181Q140 185 158 190T192 199T220 206T239 209Q251 209 261 207T272 196Z" />
<glyph unicode="&#xa4;" glyph-name="currency" horiz-adv-x="548" d="M449 103Q432 106 417 110T389 120Q373 96 353 82T315 59T281 47T259 44Q254 44 249 44T239 46Q235 30 230 16T220 -9Q214 -21 208 -32Q206 -36 200 -39T185 -42Q174 -42 171 -36T168 -22Q168
-8 170 0T177 17T187 35T199 63Q174 81 159 111T143 178Q143 197 146 215T155 251Q139 258 121 266T88 283T63 298T53 310Q53 320 61 323T78 326Q87 326 95 324Q103 322 125 313T169 291Q174 304 177 314T180 332Q180 334 180 337T179 343Q179 349 183 352Q191
358 195 361T206 364Q213 364 226 361T244 357Q249 357 255 357T269 358Q277 359 285 360Q293 360 304 359T327 354Q329 361 335 376T350 406T369 434T391 446Q398 446 402 442T407 433Q407 431 403 421T393 397T379 368T364 340Q387 327 404 303T421 238Q421 196
410 165Q419 160 431 154T468 141Q479 138 492 132T505 115Q505 106 499 103T482 99Q475 99 467 100T449 103ZM264 91Q293 91 315 104T352 141Q348 146 348 158Q348 169 353 172T367 175Q376 202 376 236Q376 258 368 274T348 300T319 314T288 319Q268 319 253
316T221 313L204 262Q208 257 208 252Q208 246 205 242T197 236Q191 215 191 198Q191 177 196 152T218 109Q221 111 223 113T230 115Q238 115 242 109T246 93Q251 91 264 91Z" />
<glyph unicode="&#xa5;" glyph-name="yen" horiz-adv-x="401" d="M340 130Q340 127 332 122T309 112T275 101T235 89Q239 38 245 2T251 -55Q251 -66 249 -72T239 -79Q224 -79 216 -71T205 -50T200 -25T199 -2Q199 10 198 26T194 77Q157 67 129 61T97 55Q80 55
75 61T70 83Q70 94 73 96T80 99Q85 99 92 98T104 96Q109 96 134 102T192 116L187 170Q149 165 120 161T90 157Q85 157 81 162T76 173Q76 178 79 181T84 187Q89 190 110 196T175 209Q161 229 137 253T88 302T46 349T28 389Q28 403 36 413T52 424Q58 424 69 401T110
346Q119 336 133 320T161 289T185 263T198 252Q203 252 206 259T210 270L232 331Q241 358 246 375T255 407T259 436T261 468Q261 486 269 489T288 493Q299 493 303 483T308 466Q308 443 300 413T280 348T257 280T239 215Q258 217 270 218T293 219T313 219T339 221Q344
221 349 214T355 203Q355 195 346 191T332 187Q324 187 296 184T232 176Q232 163 232 151T233 126Q259 133 280 137T308 142Q319 142 329 140T340 130Z" />
<glyph unicode="&#xa6;" glyph-name="brokenbar" horiz-adv-x="405" d="M271 -286Q270 -300 249 -300Q240 -300 233 -282T219 -238T207 -180T199 -121T194 -75T192 -54Q192 -49 191 -26T188 35T184 122T179 225Q183 237 196 237Q210 237 222 225Q225 171 228 118T235
19T241 -62T247 -117L271 -286ZM210 522Q210 504 211 467T214 380Q212 377 208 375Q200 371 193 371Q182 371 173 380Q171 444 170 504T168 614V800Q168 810 173 822T189 835Q203 833 207 812T211 762Q211 755 211 745T211 710T210 641T210 522Z" />
<glyph unicode="&#xa7;" glyph-name="section" horiz-adv-x="311" d="M265 132Q265 115 254 103T225 82T186 68T146 61T113 58T94 57Q72 57 60 64T48 89Q48 95 49 99T57 104Q60 104 67 103T78 101Q82 101 103 102T149 108T193 119T213 139Q213 141 193 151T131
187Q99 207 86 227T73 283Q73 309 89 323T128 345Q115 352 102 359T79 375T61 394T54 416Q54 442 73 458T117 482T165 494T194 497Q216 497 228 490T240 465Q240 459 239 455T231 450Q228 450 221 451T210 453Q206 453 189 451T154 444T121 430T106 409Q106 407
126 397T188 361Q220 341 233 321T246 265Q246 239 233 224T198 201Q224 187 244 171T265 132ZM197 280Q197 295 188 305T161 316Q144 316 133 303T122 268Q122 253 131 243T158 232Q175 232 186 245T197 280Z" />
<glyph unicode="&#xa8;" glyph-name="dieresis" horiz-adv-x="275" d="M118 441Q118 439 113 433T101 421T85 409T70 404Q66 404 60 404T47 408T35 416T30 431Q30 445 40 457T66 470Q69 470 77 468T95 461T111 452T118 441ZM241 444Q241 438 235 433T222 423T207
416T199 413Q190 413 186 417T179 427T176 438T175 445Q175 449 177 455T183 468T192 478T205 483Q218 483 229 472T241 444Z" />
<glyph unicode="&#xa9;" glyph-name="copyright" horiz-adv-x="701" d="M589 354Q589 281 571 228T525 137T464 76T399 39T342 21T306 16Q266 16 230 34T165 83T121 157T104 249Q104 291 114 332T136 408T159 472T169 518Q169 523 168 527T167 537Q167 545 173
551T186 563T202 571T214 574Q220 574 229 572T248 568T266 564T280 562Q288 562 300 562T323 564Q336 565 351 566Q367 566 390 563T440 552T493 529T541 491T575 434T589 354ZM306 56Q354 56 398 79T476 144T530 240T551 357Q551 405 529 437T475 490T409 518T352
527Q332 527 315 525T281 521T249 517T215 515Q210 495 199 464T175 397T154 324T145 256Q145 226 155 191T185 126T236 76T306 56ZM483 283Q483 274 480 264T474 248Q472 245 458 230T421 197T371 166T318 152Q303 152 287 157T257 174T235 204T226 249Q226 292
241 328T270 384Q277 394 287 404T307 423T325 437T338 443Q346 443 352 439T359 430Q359 423 355 418T344 407T327 391T306 366Q284 336 274 305T263 250Q263 226 280 213T318 199Q352 199 379 214T425 248T455 282T472 298Q483 298 483 283Z" />
<glyph unicode="&#xaa;" glyph-name="ordfeminine" horiz-adv-x="367" d="M349 365Q349 348 333 326T295 284T249 251T210 237Q196 237 177 246T144 273Q136 262 123 248T83 233Q74 233 66 238T50 250T38 265T33 281Q33 308 45 338T73 392T107 433T136 450Q144
450 154 441T165 425Q165 422 160 418T151 410Q140 401 127 385T103 352T85 318T77 293Q77 290 80 285T87 280Q98 281 104 294T116 324T125 353T137 366Q147 366 154 360T165 346T170 329T172 317Q172 312 176 306T187 294T199 284T210 280Q228 280 246 288T280
310T312 341T339 376Q341 375 345 372T349 365Z" />
<glyph unicode="&#xab;" glyph-name="guillemotleft" horiz-adv-x="412" d="M230 55Q230 46 225 44T214 42Q213 42 209 44T194 56T161 84T104 133Q102 135 99 138T95 150Q95 150 95 154T96 182T100 257T107 401Q108 407 110 416T116 435T127 450T145 456Q152 456
153 445T155 429Q155 392 152 367T144 318T137 263T133 185Q133 183 133 180T136 173Q142 161 157 149T189 122T217 92T230 55ZM361 121Q361 102 350 95T325 88Q302 88 273 108T212 155L184 177Q175 183 175 193Q175 194 175 195T177 201T182 215T191 243Q194 254
198 273T207 314T217 358T228 398T239 427T249 438Q254 438 264 435T275 420Q275 420 272 404T264 364T253 315T241 267Q240 264 238 256T233 239T228 223T226 213Q226 204 240 192T273 168T307 148T328 140Q331 140 336 141T344 142Q352 142 356 133T361 121Z"
/>
<glyph unicode="&#xac;" glyph-name="logicalnot" horiz-adv-x="415" d="M382 289Q382 268 379 242T376 195Q376 169 371 154T351 138Q344 138 340 147T333 170T330 198T329 223Q329 236 329 240T331 255Q322 255 297 253T242 248T180 241T127 231L83 221Q80 221
74 223T62 228T52 236T47 246Q47 260 57 269T82 278Q93 278 117 279T172 284T235 289T295 295T340 299T359 301Q368 301 375 299T382 289Z" />
<glyph unicode="&#xad;" glyph-name="uni00AD" horiz-adv-x="350" d="M318 220Q318 215 314 208T303 200Q300 199 270 196T192 193Q178 193 157 194T108 196Q103 196 87 193T63 190Q44 190 44 205Q44 216 52 222T69 231T88 234T101 235Q134 235 151 233T182 230Q196
230 212 231T244 233T274 236T298 238Q309 238 313 232T318 220Z" />
<glyph unicode="&#xae;" glyph-name="registered" horiz-adv-x="701" d="M494 187Q494 182 489 175T476 168Q471 168 467 170Q453 178 436 182T400 190T363 195T326 203Q328 200 332 191T336 177Q336 169 331 165T320 161Q310 161 298 177T275 216T256 259T245
290L222 387Q222 398 228 404T242 416Q267 433 302 443T366 454Q371 454 381 454T402 449T420 438T428 417Q428 400 409 380T366 339Q342 319 320 298T298 261Q298 251 312 244T345 233T379 227T400 225Q404 225 419 224T451 218T481 206T494 187ZM389 416Q389
418 381 419T364 420Q350 420 335 416T307 407T284 398T273 393L260 384Q260 381 262 372T267 352T273 328T279 305Q297 327 316 345T352 376T378 399T389 416ZM596 364Q596 291 578 238T532 147T471 86T406 49T349 31T313 26Q273 26 237 44T172 93T128 167T111
259Q111 301 121 342T143 418T166 482T176 528Q176 533 175 537T174 547Q174 555 180 562T194 574T209 581T221 584Q227 584 236 582T255 578T273 574T287 572Q295 572 307 572T330 574Q343 575 358 576Q374 576 397 573T447 562T500 539T548 501T582 444T596 364ZM313
66Q361 66 405 89T483 154T537 250T558 367Q558 415 536 447T482 500T416 528T359 537Q339 537 322 535T288 531T256 527T222 525Q217 505 206 474T182 407T161 334T152 266Q152 236 162 201T192 136T243 86T313 66Z" />
<glyph unicode="&#xaf;" glyph-name="overscore" horiz-adv-x="308" d="M283 464Q282 459 267 455T228 446T176 439T123 434T78 430T53 429Q40 429 34 436T28 453Q28 458 32 470T44 482Q49 482 52 478T59 473Q104 473 147 477T238 481Q244 481 251 480T265 477T277
472T283 464Z" />
<glyph unicode="&#xb0;" glyph-name="degree" horiz-adv-x="312" d="M253 397Q253 381 247 353T227 296T192 247T143 226Q130 226 116 228T89 237T70 255T62 283Q62 293 67 306T81 332T101 353T124 362Q131 362 139 357T148 344Q148 336 144 329T133 315T123 300T118
283Q118 278 121 275T126 272Q142 272 156 284T182 314T199 349T206 376Q206 382 200 382Q197 382 189 378T172 374Q163 374 158 382T153 393Q153 397 157 404T168 417T180 427T192 432Q199 432 209 431T229 426T246 416T253 397Z" />
<glyph unicode="&#xb1;" glyph-name="plusminus" horiz-adv-x="394" d="M320 289Q320 286 315 282T301 273T284 266T266 261Q249 257 231 256T197 252Q198 248 200 239T204 218T208 195T210 174Q210 155 204 141T180 126Q174 126 169 130T163 146Q163 157 164
164T165 181Q165 189 162 208T153 243Q143 243 128 242T110 240Q96 240 85 243T73 258Q73 267 78 270T90 273Q91 273 99 274T117 278T134 282T142 287Q142 289 140 301T134 329T129 359T126 383Q126 384 126 389T128 399T133 408T142 412Q161 412 164 400Q172 366
175 344T181 309T185 291T196 286Q220 289 241 292Q258 294 275 296T297 298Q299 298 309 296T320 289ZM347 78Q347 70 338 66T324 62Q318 62 299 60T255 55T203 48T153 41T115 35T98 33Q93 33 89 38T84 49Q84 54 87 57T92 63Q95 65 103 68T127 76T169 84T236 91Q255
92 266 92T287 93T306 94T331 96Q336 96 341 89T347 78Z" />
<glyph unicode="&#xb2;" glyph-name="twosuperior" horiz-adv-x="239" d="M206 275Q206 263 197 257T181 251Q175 251 172 253T165 257T157 261T143 263Q132 263 124 257T106 244T88 230T69 224Q52 224 47 234T42 260Q42 263 51 280T74 325T107 385T144 452Q94
434 74 428T49 421Q47 421 40 425T33 441Q33 445 49 454T87 474T132 492T171 500Q182 500 191 493T200 471Q200 460 191 439T168 394T140 346T114 305Q123 308 131 309T145 310Q150 310 160 309T181 304T198 293T206 275Z" />
<glyph unicode="&#xb3;" glyph-name="threesuperior" horiz-adv-x="239" d="M210 465Q210 455 201 445T178 427T152 412T130 401Q142 398 155 392T178 378T196 358T203 334Q203 318 192 304T163 278T127 260T92 253Q82 253 71 255T51 261T35 272T29 289Q29 294
35 304T48 321Q67 303 90 303Q99 303 109 306T130 314T146 326T153 341Q153 350 140 353T112 361T83 372T70 397Q70 412 93 424T150 454Q149 454 146 455T142 456Q131 456 121 453T102 446T86 439T75 435Q61 435 56 439T51 458Q51 466 65 474T99 488T135 497T157
501Q163 501 172 500T189 495T204 484T210 465Z" />
<glyph unicode="&#xb4;" glyph-name="acute" horiz-adv-x="268" d="M220 504Q220 496 208 481T180 450T146 421T118 402Q110 398 104 397T94 396Q86 396 74 405T62 422Q62 424 71 427T91 437Q101 443 117 456T150 483T180 507T199 517Q206 517 213 513T220 504Z" />
<glyph unicode="&#xb5;" glyph-name="mu" horiz-adv-x="369" d="M163 -153Q163 -161 157 -165T143 -169Q134 -169 125 -155T108 -120T94 -74T82 -28T74 9T71 26Q71 30 69 40T62 77T53 156T40 292Q40 301 45 315T61 329Q75 329 82 308T91 255Q94 239 100 220T113
183T127 153T139 141Q152 141 161 157T177 195T186 236T189 262Q189 263 189 268T191 280T192 291T193 298Q193 305 190 307T187 318Q187 324 193 329T219 335Q227 335 231 331T238 320T240 309T241 301Q241 300 240 287T239 259T237 229T236 212Q236 209 239 200T246
182T257 165T270 157Q282 157 292 160T312 168T330 176T345 180Q354 180 361 176T369 166Q369 157 357 147T329 129T297 114T272 108Q263 108 253 113T233 125T216 138T207 146Q204 143 198 134T185 115T168 96T152 88Q136 88 124 97T101 122Q104 100 106 85T112
55T119 20T132 -30L163 -153V-153Z" />
<glyph unicode="&#xb6;" glyph-name="paragraph" horiz-adv-x="737" d="M530 -175Q530 -183 524 -187T510 -191Q503 -191 496 -182T483 -156T470 -120T457 -78Q452 -79 447 -79T437 -80Q431 -80 426 -80T413 -79Q419 -97 424 -112T430 -130Q430 -144 427 -156T415
-168Q408 -168 401 -160T388 -138T375 -107T363 -71Q314 -61 260 -41T159 6T83 67T53 138Q53 172 65 203T99 263T150 319T215 373Q252 401 301 427T399 473T493 505T564 518Q582 518 590 514T599 493Q599 482 591 467T575 452Q567 452 564 457T560 468V476Q560
477 561 478Q536 475 500 466T415 437Q425 427 431 399T442 338T448 271T453 216Q457 184 460 158T467 107T476 53T490 -9L492 -16Q506 -7 514 2T526 11Q533 11 545 8T558 -6Q558 -22 542 -37T503 -63L530 -175ZM400 -28Q399 -28 413 -29T445 -31Q437 0 433 22T429
47Q429 55 416 144T388 405Q388 410 388 416T390 427Q371 419 351 409T308 387Q270 366 233 338T167 277T119 209T101 139Q101 115 125 90T187 42T269 3T351 -20Q342 9 335 43T321 111T311 174T306 224Q304 234 302 249T299 281T296 312T294 335Q294 344 297 354T306
364Q318 364 325 355T336 325T344 270T355 187Q365 117 376 62T400 -28Z" />
<glyph unicode="&#xb7;" glyph-name="middot" horiz-adv-x="325" d="M196 198Q196 192 190 187T177 177T162 170T154 167Q145 167 141 171T134 181T131 192T130 199Q130 203 132 209T138 222T147 232T160 237Q173 237 184 226T196 198Z" />
<glyph unicode="&#xb8;" glyph-name="cedilla" horiz-adv-x="328" d="M147 70Q148 68 148 64Q148 54 141 45T125 27Q120 22 112 14T102 -4Q104 -8 108 -9T118 -10Q121 -10 135 -9T156 -8Q163 -8 179 -10T213 -20T244 -41T257 -77Q257 -95 243 -107T211 -128T177
-141T155 -145Q138 -145 126 -132T113 -102Q113 -99 118 -99Q123 -99 130 -101T145 -103Q147 -103 157 -101T178 -94T199 -83T209 -69Q209 -64 204 -60T190 -52T174 -47T158 -45Q145 -45 139 -46T120 -47Q113 -47 103 -46T82 -41T65 -29T58 -7Q58 -1 67 13T90 42T117
68T140 79Q143 79 144 76T147 70Z" />
<glyph unicode="&#xb9;" glyph-name="onesuperior" horiz-adv-x="188" d="M154 270Q154 259 142 253T125 247Q111 247 103 263T91 303T84 349T80 388L76 417Q70 413 63 409T49 400T38 393T32 390Q28 390 23 399T18 412Q18 414 22 421T37 439Q48 449 56 460T70
480T83 494T96 500Q104 500 109 495T117 483T121 468T123 455Q123 401 128 367T138 312T149 282T154 270Z" />
<glyph unicode="&#xba;" glyph-name="ordmasculine" horiz-adv-x="250" d="M215 398Q215 382 209 354T189 297T156 249T107 228Q81 228 60 240T39 287Q39 297 46 315T64 352T88 383T113 397Q115 397 121 395Q122 399 126 405T137 418T149 428T160 432Q167 432
176 431T194 427T209 417T215 398ZM140 374Q132 369 123 358T106 332T92 305T86 283Q86 278 89 275T94 272Q110 272 124 285T150 317T168 353T175 381Q175 387 169 387Q166 387 156 383T140 374Z" />
<glyph unicode="&#xbb;" glyph-name="guillemotright" horiz-adv-x="392" d="M305 294Q311 288 311 278Q311 261 299 210T279 86Q277 74 271 65T253 56Q242 56 239 61T235 84Q235 96 239 119T250 170T261 222T270 265Q267 273 249 298T211 355T175 417T159 467Q159
472 165 484T183 497Q185 497 189 495T196 489Q209 464 219 441T240 395T267 346T305 294ZM203 199Q203 197 199 177T187 134T168 93T142 74Q132 74 126 81T120 92Q120 99 127 119T143 163T159 207T167 237Q167 241 151 261T115 308T79 367T62 426Q62 433 68 440T79
447Q93 447 99 440T110 422Q114 407 119 390T135 353T163 312T206 266Q208 264 211 260T214 247L203 199Z" />
<glyph unicode="&#xbc;" glyph-name="onequarter" horiz-adv-x="572" d="M517 131Q517 117 507 112T485 106T463 103T453 95Q453 90 454 78T456 51T459 20T460 -11Q460 -20 455 -34T434 -49Q426 -49 421 -44T413 -31T409 -13T408 6V95H391Q388 95 376 96T349 101T323
113T312 138Q312 152 326 169T359 202T391 230T406 248V269Q406 277 412 281T423 285Q433 285 439 276T448 252T452 221T453 188V144Q483 153 491 153Q502 153 509 148T517 131ZM362 494Q368 492 368 482Q368 480 368 479T367 476V474Q344 417 324 347T279 206T227
68T160 -49Q152 -60 150 -60Q147 -60 144 -50T140 -37Q140 -35 168 36Q181 69 196 112T228 202T260 295T290 382Q298 406 307 427T324 465T338 490T349 499Q351 499 354 498T362 494ZM186 270Q186 259 174 253T157 247Q143 247 135 263T123 303T116 349T112 388L108
417Q102 413 95 409T81 400T70 393T64 390Q60 390 55 399T50 412Q50 414 54 421T69 439Q80 449 88 460T102 480T115 494T128 500Q136 500 141 495T149 483T153 468T155 455Q155 401 160 367T170 312T181 282T186 270ZM407 194Q403 190 396 182T381 166T369 151T363
140Q373 138 383 138Q390 138 396 138T407 140V194Z" />
<glyph unicode="&#xbd;" glyph-name="onehalf" horiz-adv-x="572" d="M186 270Q186 259 174 253T157 247Q143 247 135 263T123 303T116 349T112 388L108 417Q102 413 95 409T81 400T70 393T64 390Q60 390 55 399T50 412Q50 414 54 421T69 439Q80 449 88 460T102
480T115 494T128 500Q136 500 141 495T149 483T153 468T155 455Q155 401 160 367T170 312T181 282T186 270ZM362 494Q368 492 368 482Q368 480 368 479T367 476V474Q344 417 324 347T279 206T227 68T160 -49Q152 -60 150 -60Q147 -60 144 -50T140 -37Q140 -35 168
36Q181 69 196 112T228 202T260 295T290 382Q298 406 307 427T324 465T338 490T349 499Q351 499 354 498T362 494ZM503 29Q503 17 494 11T478 5Q472 5 469 7T462 11T454 15T440 17Q429 17 421 11T403 -2T385 -16T366 -22Q349 -22 344 -12T339 14Q339 17 348 34T371
79T404 139T441 206Q391 188 371 182T346 175Q344 175 337 179T330 195Q330 199 346 208T384 228T429 246T468 254Q479 254 488 247T497 225Q497 214 488 193T465 148T437 100T411 59Q420 62 428 63T442 64Q447 64 457 63T478 58T495 47T503 29Z" />
<glyph unicode="&#xbe;" glyph-name="threequarters" horiz-adv-x="565" d="M517 131Q517 117 507 112T485 106T463 103T453 95Q453 90 454 78T456 51T459 20T460 -11Q460 -20 455 -34T434 -49Q426 -49 421 -44T413 -31T409 -13T408 6V95H391Q388 95 376 96T349
101T323 113T312 138Q312 152 326 169T359 202T391 230T406 248V269Q406 277 412 281T423 285Q433 285 439 276T448 252T452 221T453 188V144Q483 153 491 153Q502 153 509 148T517 131ZM360 494Q366 492 366 482Q366 480 366 479T365 476V474Q342 417 322 347T277
206T225 68T158 -49Q150 -60 148 -60Q145 -60 142 -50T138 -37Q138 -35 166 36Q179 69 194 112T226 202T258 295T288 382Q296 406 305 427T322 465T336 490T347 499Q349 499 352 498T360 494ZM223 465Q223 455 214 445T191 427T165 412T143 401Q155 398 168 392T191
378T209 358T216 334Q216 318 205 304T176 278T140 260T105 253Q95 253 84 255T64 261T48 272T42 289Q42 294 48 304T61 321Q80 303 103 303Q112 303 122 306T143 314T159 326T166 341Q166 350 153 353T125 361T96 372T83 397Q83 412 106 424T163 454Q162 454 159
455T155 456Q144 456 134 453T115 446T99 439T88 435Q74 435 69 439T64 458Q64 466 78 474T112 488T148 497T170 501Q176 501 185 500T202 495T217 484T223 465ZM407 194Q403 190 396 182T381 166T369 151T363 140Q372 138 385 138T407 140V194Z" />
<glyph unicode="&#xbf;" glyph-name="questiondown" horiz-adv-x="410" d="M338 93Q338 83 335 73T329 55Q327 52 313 39T276 10T225 -16T169 -28Q152 -28 134 -22T101 -2T75 31T65 81Q65 118 76 146T102 196T133 234T160 263Q180 286 196 303T213 338Q213 349
211 361T203 382Q208 391 213 396T226 401Q233 401 238 395T248 380T254 361T257 343Q257 325 252 311T238 286T217 263T192 238Q158 204 134 166T109 80Q109 54 128 38T169 21Q207 21 234 35T280 65T310 96T327 110Q338 110 338 93ZM242 523Q242 521 237 515T226
503T211 493T197 488Q193 488 187 488T174 491T164 499T159 513Q159 526 168 538T193 550Q196 550 204 548T220 542T235 533T242 523Z" />
<glyph unicode="&#xc0;" glyph-name="Agrave" horiz-adv-x="406" d="M354 -44Q355 -48 355 -51T355 -57Q355 -67 351 -71T333 -75Q321 -75 317 -71Q311 -65 301 -40T280 19T259 92T240 166Q229 161 210 156T171 145Q148 140 123 134Q114 91 110 61T102 11T93 -18T75
-28Q67 -28 61 -19T55 8Q55 17 60 50T71 123T83 204T91 267Q92 279 97 306T109 361T121 413T129 439Q145 476 149 515T156 586T165 639T190 660Q195 660 200 652T211 633T219 612T223 595Q224 589 225 571T228 532T231 490T234 458Q237 425 243 384T257 307T270
247T279 222Q283 222 289 224T302 226Q310 226 310 218Q310 210 306 205T298 196T290 189T286 182Q286 174 295 141L311 82Q313 74 320 55T334 16T348 -22T354 -44ZM132 185Q138 185 154 188T187 197T217 207T230 215Q230 218 227 230T219 262T209 307T200 360Q198
378 195 409T189 470T184 523T182 545Q182 545 179 531T173 499T167 466T164 448V420Q164 418 162 403T155 364T147 313T138 260T132 216T129 189Q129 185 132 185ZM121 830Q124 833 128 833Q133 833 140 830T155 821Q162 816 176 802T204 771T230 740T246 723Q247
722 251 721T260 719T269 715T273 710Q273 702 263 691T245 680Q239 680 226 687Q212 694 194 713T160 755T132 797T120 827Q120 828 120 828T121 830Z" />
<glyph unicode="&#xc1;" glyph-name="Aacute" horiz-adv-x="406" d="M354 -44Q355 -48 355 -51T355 -57Q355 -67 351 -71T333 -75Q321 -75 317 -71Q311 -65 301 -40T280 19T259 92T240 166Q229 161 210 156T171 145Q148 140 123 134Q114 91 110 61T102 11T93 -18T75
-28Q67 -28 61 -19T55 8Q55 17 60 50T71 123T83 204T91 267Q92 279 97 306T109 361T121 413T129 439Q145 476 149 515T156 586T165 639T190 660Q195 660 200 652T211 633T219 612T223 595Q224 589 225 571T228 532T231 490T234 458Q237 425 243 384T257 307T270
247T279 222Q283 222 289 224T302 226Q310 226 310 218Q310 210 306 205T298 196T290 189T286 182Q286 174 295 141L311 82Q313 74 320 55T334 16T348 -22T354 -44ZM132 185Q138 185 154 188T187 197T217 207T230 215Q230 218 227 230T219 262T209 307T200 360Q198
378 195 409T189 470T184 523T182 545Q182 545 179 531T173 499T167 466T164 448V420Q164 418 162 403T155 364T147 313T138 260T132 216T129 189Q129 185 132 185ZM290 816Q290 808 278 793T250 762T216 733T188 714Q180 710 174 709T164 708Q156 708 144 717T132
734Q132 736 141 739T161 749Q171 755 187 768T220 795T250 819T269 829Q276 829 283 825T290 816Z" />
<glyph unicode="&#xc2;" glyph-name="Acircumflex" horiz-adv-x="406" d="M354 -44Q355 -48 355 -51T355 -57Q355 -67 351 -71T333 -75Q321 -75 317 -71Q311 -65 301 -40T280 19T259 92T240 166Q229 161 210 156T171 145Q148 140 123 134Q114 91 110 61T102 11T93
-18T75 -28Q67 -28 61 -19T55 8Q55 17 60 50T71 123T83 204T91 267Q92 279 97 306T109 361T121 413T129 439Q145 476 149 515T156 586T165 639T190 660Q195 660 200 652T211 633T219 612T223 595Q224 589 225 571T228 532T231 490T234 458Q237 425 243 384T257
307T270 247T279 222Q283 222 289 224T302 226Q310 226 310 218Q310 210 306 205T298 196T290 189T286 182Q286 174 295 141L311 82Q313 74 320 55T334 16T348 -22T354 -44ZM132 185Q138 185 154 188T187 197T217 207T230 215Q230 218 227 230T219 262T209 307T200
360Q198 378 195 409T189 470T184 523T182 545Q182 545 179 531T173 499T167 466T164 448V420Q164 418 162 403T155 364T147 313T138 260T132 216T129 189Q129 185 132 185ZM328 651Q326 650 321 648T310 645Q299 645 289 649T271 658Q254 667 242 680T219 708T201
735T187 755Q173 738 156 723T115 693Q107 689 104 689Q97 689 94 694T90 704Q90 710 95 715Q107 727 119 743T143 774T166 799T186 809Q204 809 217 795T244 760T273 718T310 681Q320 681 329 677T338 666Q338 661 334 657T328 651Z" />
<glyph unicode="&#xc3;" glyph-name="Atilde" horiz-adv-x="406" d="M354 -44Q355 -48 355 -51T355 -57Q355 -67 351 -71T333 -75Q321 -75 317 -71Q311 -65 301 -40T280 19T259 92T240 166Q229 161 210 156T171 145Q148 140 123 134Q114 91 110 61T102 11T93 -18T75
-28Q67 -28 61 -19T55 8Q55 17 60 50T71 123T83 204T91 267Q92 279 97 306T109 361T121 413T129 439Q145 476 149 515T156 586T165 639T190 660Q195 660 200 652T211 633T219 612T223 595Q224 589 225 571T228 532T231 490T234 458Q237 425 243 384T257 307T270
247T279 222Q283 222 289 224T302 226Q310 226 310 218Q310 210 306 205T298 196T290 189T286 182Q286 174 295 141L311 82Q313 74 320 55T334 16T348 -22T354 -44ZM132 185Q138 185 154 188T187 197T217 207T230 215Q230 218 227 230T219 262T209 307T200 360Q198
378 195 409T189 470T184 523T182 545Q182 545 179 531T173 499T167 466T164 448V420Q164 418 162 403T155 364T147 313T138 260T132 216T129 189Q129 185 132 185ZM321 747Q321 736 317 724T305 702T284 684T254 677Q241 677 227 684T200 701T176 725T155 753L101
711Q93 705 85 705Q74 705 72 709T70 720Q70 726 81 739T108 766T139 790T163 801Q173 801 184 789T206 762Q221 743 232 731T253 719Q264 719 267 730T270 752Q270 754 270 756T269 760Q277 768 282 770T295 773Q307 773 314 763T321 747Z" />
<glyph unicode="&#xc4;" glyph-name="Adieresis" horiz-adv-x="406" d="M354 -44Q355 -48 355 -51T355 -57Q355 -67 351 -71T333 -75Q321 -75 317 -71Q311 -65 301 -40T280 19T259 92T240 166Q229 161 210 156T171 145Q148 140 123 134Q114 91 110 61T102 11T93
-18T75 -28Q67 -28 61 -19T55 8Q55 17 60 50T71 123T83 204T91 267Q92 279 97 306T109 361T121 413T129 439Q145 476 149 515T156 586T165 639T190 660Q195 660 200 652T211 633T219 612T223 595Q224 589 225 571T228 532T231 490T234 458Q237 425 243 384T257
307T270 247T279 222Q283 222 289 224T302 226Q310 226 310 218Q310 210 306 205T298 196T290 189T286 182Q286 174 295 141L311 82Q313 74 320 55T334 16T348 -22T354 -44ZM132 185Q138 185 154 188T187 197T217 207T230 215Q230 218 227 230T219 262T209 307T200
360Q198 378 195 409T189 470T184 523T182 545Q182 545 179 531T173 499T167 466T164 448V420Q164 418 162 403T155 364T147 313T138 260T132 216T129 189Q129 185 132 185ZM169 718Q169 716 164 710T152 698T136 686T121 681Q117 681 111 681T98 685T86 693T81
708Q81 722 91 734T117 747Q120 747 128 745T146 738T162 729T169 718ZM292 721Q292 715 286 710T273 700T258 693T250 690Q241 690 237 694T230 704T227 715T226 722Q226 726 228 732T234 745T243 755T256 760Q269 760 280 749T292 721Z" />
<glyph unicode="&#xc5;" glyph-name="Aring" horiz-adv-x="406" d="M248 746Q256 738 256 724Q256 718 253 708T242 686T225 664T202 649Q210 638 215 621T223 595Q224 589 225 571T228 532T231 490T234 458Q237 425 243 384T257 307T270 247T279 222Q283 222
289 224T302 226Q310 226 310 218Q310 210 306 205T298 196T290 189T286 182Q286 174 295 141L311 82Q313 74 320 55T334 16T348 -22T354 -44Q355 -48 355 -51T355 -57Q355 -67 351 -71T333 -75Q321 -75 317 -71Q311 -65 301 -40T280 19T259 92T240 166Q229 161
210 156T171 145Q148 140 123 134Q114 91 110 61T102 11T93 -18T75 -28Q67 -28 61 -19T55 8Q55 17 60 50T71 123T83 204T91 267Q92 279 97 306T109 361T121 413T129 439Q142 469 147 500T154 559T158 610T168 646Q149 649 141 660T132 683Q132 699 140 717T162
751T192 777T226 787Q235 787 248 779T262 763Q262 762 258 757T248 746ZM132 185Q138 185 154 188T187 197T217 207T230 215Q230 218 227 230T219 262T209 307T200 360Q198 378 195 409T189 470T184 523T182 545Q182 545 179 531T173 499T167 466T164 448V420Q164
418 162 403T155 364T147 313T138 260T132 216T129 189Q129 185 132 185ZM216 740Q215 740 215 740T213 741Q209 741 203 737T190 725T180 710T176 696Q176 685 183 685Q191 685 197 690T209 703T216 719T219 734Q219 738 216 740Z" />
<glyph unicode="&#xc6;" glyph-name="AE" horiz-adv-x="562" d="M354 -44Q355 -48 355 -51T355 -57Q355 -67 351 -71T333 -75Q321 -75 317 -71Q311 -65 298 -34H297Q286 -34 274 -27T262 -8Q262 -2 269 -1T285 3Q273 39 261 83T240 166Q229 161 210 156T171 145Q148
140 123 134Q114 91 110 61T102 11T93 -18T75 -28Q67 -28 61 -19T55 8Q55 17 60 50T71 123T83 204T91 267Q92 279 97 306T109 361T121 413T129 439Q145 476 149 515T156 586T165 639T190 660Q195 660 200 652T211 633T219 612T223 595Q224 589 225 571T228 532T231
490T234 458Q235 447 236 436T239 414Q260 426 284 434T323 447Q331 449 346 453T379 461T411 468T434 471Q442 471 446 467T450 456Q450 450 426 440T368 418T301 393T246 367Q250 343 254 320T262 278T269 245T276 225Q316 238 346 249T398 268T438 283T473 294Q475
294 479 293T483 287Q483 281 478 278Q467 270 446 258T399 232T343 205T286 180Q286 171 295 141L311 82Q313 74 320 55T335 14Q368 23 405 38T469 64Q473 66 480 71T494 76Q499 76 502 71T506 61Q506 53 500 49Q494 44 481 37T452 22T422 7T400 -3Q392 -7 378
-12T348 -23Q354 -38 354 -44ZM132 185Q138 185 154 188T187 197T217 207T230 215Q230 218 227 230T219 262T209 307T200 360Q198 378 195 409T189 470T184 523T182 545Q182 545 179 531T173 499T167 466T164 448V420Q164 418 162 403T155 364T147 313T138 260T132
216T129 189Q129 185 132 185Z" />
<glyph unicode="&#xc7;" glyph-name="Ccedilla" horiz-adv-x="522" d="M477 229Q477 215 470 200T451 170T427 142T403 118Q355 76 302 42T187 -1Q183 -7 179 -12T169 -22Q164 -27 156 -35T146 -53Q148 -57 152 -58T162 -59Q165 -59 179 -58T200 -57Q207 -57 223
-59T257 -69T288 -90T301 -126Q301 -144 287 -156T255 -177T221 -190T199 -194Q182 -194 170 -181T157 -151Q157 -148 162 -148Q167 -148 174 -150T189 -152Q191 -152 201 -150T222 -143T243 -132T253 -118Q253 -113 248 -109T234 -101T218 -96T202 -94Q189 -94
183 -95T164 -96Q157 -96 147 -95T126 -90T109 -78T102 -56Q102 -49 112 -34T137 -2Q47 5 47 109Q47 120 56 152T79 225T112 311T151 393T190 455T227 479Q238 479 243 472T249 457Q248 451 235 432T208 392Q206 389 201 382T191 368Q185 360 179 351Q175 344 162
316T133 250T106 172T94 101Q94 84 101 74T119 59T141 53T162 51Q199 51 240 67T320 111T390 173T440 247Q444 254 448 256T457 258Q465 258 471 247T477 229Z" />
<glyph unicode="&#xc8;" glyph-name="Egrave" horiz-adv-x="369" d="M331 353Q332 351 333 351T334 348Q334 342 309 326T247 289T169 248T96 214Q96 212 94 201T92 187V168Q92 145 99 123T120 82T156 53T205 42Q217 42 234 46T268 59T298 80T314 107Q326 106
328 100T331 92Q331 66 319 48T288 18T249 1T212 -5Q126 -5 87 43T48 169Q48 173 50 187T52 206Q52 207 48 208T40 212T32 218T28 231Q28 239 34 244T48 253L58 259Q67 297 79 332T111 404Q103 404 94 406T85 420Q85 434 101 451T139 483T182 508T212 519Q216 519
217 518T223 516Q231 516 243 519T270 526T296 533T317 536Q326 536 330 530T335 517Q335 509 325 506T307 500Q279 495 249 483T192 455Q182 444 168 424T141 377T118 323T104 270L121 278Q198 315 246 336T322 357Q327 357 331 353ZM94 706Q97 709 101 709Q106
709 113 706T128 697Q135 692 149 678T177 647T203 616T219 599Q220 598 224 597T233 595T242 591T246 586Q246 578 236 567T218 556Q212 556 199 563Q185 570 167 589T133 631T105 673T93 703Q93 704 93 704T94 706Z" />
<glyph unicode="&#xc9;" glyph-name="Eacute" horiz-adv-x="369" d="M331 353Q332 351 333 351T334 348Q334 342 309 326T247 289T169 248T96 214Q96 212 94 201T92 187V168Q92 145 99 123T120 82T156 53T205 42Q217 42 234 46T268 59T298 80T314 107Q326 106
328 100T331 92Q331 66 319 48T288 18T249 1T212 -5Q126 -5 87 43T48 169Q48 173 50 187T52 206Q52 207 48 208T40 212T32 218T28 231Q28 239 34 244T48 253L58 259Q67 297 79 332T111 404Q103 404 94 406T85 420Q85 434 101 451T139 483T182 508T212 519Q216 519
217 518T223 516Q231 516 243 519T270 526T296 533T317 536Q326 536 330 530T335 517Q335 509 325 506T307 500Q279 495 249 483T192 455Q182 444 168 424T141 377T118 323T104 270L121 278Q198 315 246 336T322 357Q327 357 331 353ZM322 669Q322 661 310 646T282
615T248 586T220 567Q212 563 206 562T196 561Q188 561 176 570T164 587Q164 589 173 592T193 602Q203 608 219 621T252 648T282 672T301 682Q308 682 315 678T322 669Z" />
<glyph unicode="&#xca;" glyph-name="Ecircumflex" horiz-adv-x="369" d="M331 353Q332 351 333 351T334 348Q334 342 309 326T247 289T169 248T96 214Q96 212 94 201T92 187V168Q92 145 99 123T120 82T156 53T205 42Q217 42 234 46T268 59T298 80T314 107Q326
106 328 100T331 92Q331 66 319 48T288 18T249 1T212 -5Q126 -5 87 43T48 169Q48 173 50 187T52 206Q52 207 48 208T40 212T32 218T28 231Q28 239 34 244T48 253L58 259Q67 297 79 332T111 404Q103 404 94 406T85 420Q85 434 101 451T139 483T182 508T212 519Q216
519 217 518T223 516Q231 516 243 519T270 526T296 533T317 536Q326 536 330 530T335 517Q335 509 325 506T307 500Q279 495 249 483T192 455Q182 444 168 424T141 377T118 323T104 270L121 278Q198 315 246 336T322 357Q327 357 331 353ZM346 561Q344 560 339
558T328 555Q317 555 307 559T289 568Q272 577 260 590T237 618T219 645T205 665Q191 648 174 633T133 603Q125 599 122 599Q115 599 112 604T108 614Q108 620 113 625Q125 637 137 653T161 684T184 709T204 719Q222 719 235 705T262 670T291 628T328 591Q338 591
347 587T356 576Q356 571 352 567T346 561Z" />
<glyph unicode="&#xcb;" glyph-name="Edieresis" horiz-adv-x="369" d="M331 353Q332 351 333 351T334 348Q334 342 309 326T247 289T169 248T96 214Q96 212 94 201T92 187V168Q92 145 99 123T120 82T156 53T205 42Q217 42 234 46T268 59T298 80T314 107Q326 106
328 100T331 92Q331 66 319 48T288 18T249 1T212 -5Q126 -5 87 43T48 169Q48 173 50 187T52 206Q52 207 48 208T40 212T32 218T28 231Q28 239 34 244T48 253L58 259Q67 297 79 332T111 404Q103 404 94 406T85 420Q85 434 101 451T139 483T182 508T212 519Q216 519
217 518T223 516Q231 516 243 519T270 526T296 533T317 536Q326 536 330 530T335 517Q335 509 325 506T307 500Q279 495 249 483T192 455Q182 444 168 424T141 377T118 323T104 270L121 278Q198 315 246 336T322 357Q327 357 331 353ZM180 601Q180 599 175 593T163
581T147 569T132 564Q128 564 122 564T109 568T97 576T92 591Q92 605 102 617T128 630Q131 630 139 628T157 621T173 612T180 601ZM303 604Q303 598 297 593T284 583T269 576T261 573Q252 573 248 577T241 587T238 598T237 605Q237 609 239 615T245 628T254 638T267
643Q280 643 291 632T303 604Z" />
<glyph unicode="&#xcc;" glyph-name="Igrave" horiz-adv-x="519" d="M512 143Q512 124 489 115Q466 106 436 97T377 80T328 66T301 56Q301 54 301 51T302 45L305 21Q305 12 303 7T292 2Q283 2 280 7T274 20T270 36T264 48Q262 48 248 44T213 34T165 21T113 7T66
-3T32 -7Q5 -7 5 10Q5 23 12 29T30 38Q32 39 49 43T92 52T145 65T198 78T238 89T254 96Q254 102 250 118T241 148L235 168Q221 232 213 297T200 425Q198 427 195 427Q190 427 169 417T124 396T80 374T55 364Q48 364 42 370T35 382Q35 390 48 400T80 422T123 444T168
463T205 477T226 482Q234 482 247 485T275 492T305 499T333 502Q346 502 346 493Q346 488 342 485L313 477Q302 474 290 471T267 463T250 453T243 441Q243 416 248 376T261 289T278 194T293 104L472 150Q478 151 484 153Q489 155 494 156T503 157Q512 157 512 143ZM87
681Q90 684 94 684Q99 684 106 681T121 672Q128 667 142 653T170 622T196 591T212 574Q213 573 217 572T226 570T235 566T239 561Q239 553 229 542T211 531Q205 531 192 538Q178 545 160 564T126 606T98 648T86 678Q86 679 86 679T87 681Z" />
<glyph unicode="&#xcd;" glyph-name="Iacute" horiz-adv-x="519" d="M512 143Q512 124 489 115Q466 106 436 97T377 80T328 66T301 56Q301 54 301 51T302 45L305 21Q305 12 303 7T292 2Q283 2 280 7T274 20T270 36T264 48Q262 48 248 44T213 34T165 21T113 7T66
-3T32 -7Q5 -7 5 10Q5 23 12 29T30 38Q32 39 49 43T92 52T145 65T198 78T238 89T254 96Q254 102 250 118T241 148L235 168Q221 232 213 297T200 425Q198 427 195 427Q190 427 169 417T124 396T80 374T55 364Q48 364 42 370T35 382Q35 390 48 400T80 422T123 444T168
463T205 477T226 482Q234 482 247 485T275 492T305 499T333 502Q346 502 346 493Q346 488 342 485L313 477Q302 474 290 471T267 463T250 453T243 441Q243 416 248 376T261 289T278 194T293 104L472 150Q478 151 484 153Q489 155 494 156T503 157Q512 157 512 143ZM295
635Q295 627 283 612T255 581T221 552T193 533Q185 529 179 528T169 527Q161 527 149 536T137 553Q137 555 146 558T166 568Q176 574 192 587T225 614T255 638T274 648Q281 648 288 644T295 635Z" />
<glyph unicode="&#xce;" glyph-name="Icircumflex" horiz-adv-x="519" d="M512 143Q512 124 489 115Q466 106 436 97T377 80T328 66T301 56Q301 54 301 51T302 45L305 21Q305 12 303 7T292 2Q283 2 280 7T274 20T270 36T264 48Q262 48 248 44T213 34T165 21T113
7T66 -3T32 -7Q5 -7 5 10Q5 23 12 29T30 38Q32 39 49 43T92 52T145 65T198 78T238 89T254 96Q254 102 250 118T241 148L235 168Q221 232 213 297T200 425Q198 427 195 427Q190 427 169 417T124 396T80 374T55 364Q48 364 42 370T35 382Q35 390 48 400T80 422T123
444T168 463T205 477T226 482Q234 482 247 485T275 492T305 499T333 502Q346 502 346 493Q346 488 342 485L313 477Q302 474 290 471T267 463T250 453T243 441Q243 416 248 376T261 289T278 194T293 104L472 150Q478 151 484 153Q489 155 494 156T503 157Q512 157
512 143ZM311 541Q309 540 304 538T293 535Q282 535 272 539T254 548Q237 557 225 570T202 598T184 625T170 645Q156 628 139 613T98 583Q90 579 87 579Q80 579 77 584T73 594Q73 600 78 605Q90 617 102 633T126 664T149 689T169 699Q187 699 200 685T227 650T256
608T293 571Q303 571 312 567T321 556Q321 551 317 547T311 541Z" />
<glyph unicode="&#xcf;" glyph-name="Idieresis" horiz-adv-x="519" d="M512 143Q512 124 489 115Q466 106 436 97T377 80T328 66T301 56Q301 54 301 51T302 45L305 21Q305 12 303 7T292 2Q283 2 280 7T274 20T270 36T264 48Q262 48 248 44T213 34T165 21T113
7T66 -3T32 -7Q5 -7 5 10Q5 23 12 29T30 38Q32 39 49 43T92 52T145 65T198 78T238 89T254 96Q254 102 250 118T241 148L235 168Q221 232 213 297T200 425Q198 427 195 427Q190 427 169 417T124 396T80 374T55 364Q48 364 42 370T35 382Q35 390 48 400T80 422T123
444T168 463T205 477T226 482Q234 482 247 485T275 492T305 499T333 502Q346 502 346 493Q346 488 342 485L313 477Q302 474 290 471T267 463T250 453T243 441Q243 416 248 376T261 289T278 194T293 104L472 150Q478 151 484 153Q489 155 494 156T503 157Q512 157
512 143ZM174 570Q174 568 169 562T157 550T141 538T126 533Q122 533 116 533T103 537T91 545T86 560Q86 574 96 586T122 599Q125 599 133 597T151 590T167 581T174 570ZM297 573Q297 567 291 562T278 552T263 545T255 542Q246 542 242 546T235 556T232 567T231
574Q231 578 233 584T239 597T248 607T261 612Q274 612 285 601T297 573Z" />
<glyph unicode="&#xd0;" glyph-name="Eth" horiz-adv-x="448" d="M168 275Q168 269 161 264T142 253Q146 238 147 230T148 216T149 204T153 184Q158 161 160 138T162 102Q162 94 159 84T151 74Q142 74 138 83T131 106T126 140T118 179L103 238Q83 233 68 230T48
226Q33 226 27 228T17 239Q15 243 12 247T9 255Q9 260 17 260Q27 260 48 265T93 276Q88 296 84 313T78 338Q76 349 74 369T69 412Q66 437 63 466Q63 466 58 467T45 469T28 471T10 472Q-7 472 -20 466T-44 451T-61 436T-70 429Q-76 429 -88 432T-100 445Q-100 458
-88 471T-58 494T-19 510T20 517Q49 517 89 509T172 487T256 453T331 409T384 358T404 300Q404 232 359 176T242 65Q205 37 163 14T78 -26T-1 -52T-67 -61Q-84 -61 -92 -57T-100 -38Q-100 -28 -93 -14T-78 1Q-71 1 -68 -3T-65 -13Q-65 -16 -65 -18T-66 -22V-25Q-63
-25 -60 -25T-54 -24Q-36 -23 -19 -21T21 -12T74 8T150 47Q189 68 226 97T293 159T341 227T360 299Q360 323 335 349T271 398T188 438T104 461Q104 457 106 439T111 396T120 342T132 287Q149 292 153 292Q157 292 162 286T168 275Z" />
<glyph unicode="&#xd1;" glyph-name="Ntilde" horiz-adv-x="473" d="M473 39Q473 29 464 21T444 13Q442 13 438 15T432 20Q390 60 343 99T248 179T154 265T66 363Q79 309 101 249T143 135T179 44T194 -5Q194 -17 185 -24T165 -32Q159 -32 152 -20T137 13T120 57T103
106T88 152T77 188L50 269Q41 295 32 322T16 374T4 416T-1 440Q-1 451 2 462T13 474Q18 474 20 472T24 469L36 474Q41 474 53 462T82 429T118 384T156 335T193 290T225 257Q247 237 269 219T313 183T361 143T416 95Q417 94 421 94Q423 94 423 99T423 111Q423 125
415 161T393 246T359 350T319 457T274 551T228 616Q222 622 220 634T217 654Q217 661 226 669T244 678Q256 678 271 654T303 592T337 505T372 408Q392 350 409 294T440 188T462 100T473 39ZM197 593Q197 582 193 570T181 548T160 530T130 523Q117 523 103 530T76
547T52 571T31 599L-23 557Q-31 551 -39 551Q-50 551 -52 555T-54 566Q-54 572 -43 585T-16 612T15 636T39 647Q49 647 60 635T82 608Q97 589 108 577T129 565Q140 565 143 576T146 598Q146 600 146 602T145 606Q153 614 158 616T171 619Q183 619 190 609T197 593Z"
/>
<glyph unicode="&#xd2;" glyph-name="Ograve" horiz-adv-x="403" d="M360 258Q362 245 362 237T363 221Q363 196 357 162T335 98T294 46T229 24Q193 24 161 44T104 97T65 170T50 251Q50 309 57 350T79 423Q79 426 76 429T72 437Q72 442 81 450T104 465T131 478T152
484Q156 484 165 480T190 476Q195 476 200 477T211 478Q232 478 256 459T302 408T339 338T360 258ZM320 219Q320 238 312 273T288 343T250 404T199 430Q197 430 192 430T179 431T166 432T159 433Q143 433 132 418T113 379T101 324T97 262Q97 251 103 220T124 155T166
95T232 69Q259 69 276 85T302 126T316 175T320 219ZM54 674Q57 677 61 677Q66 677 73 674T88 665Q95 660 109 646T137 615T163 584T179 567Q180 566 184 565T193 563T202 559T206 554Q206 546 196 535T178 524Q172 524 159 531Q145 538 127 557T93 599T65 641T53
671Q53 672 53 672T54 674Z" />
<glyph unicode="&#xd3;" glyph-name="Oacute" horiz-adv-x="403" d="M360 258Q362 245 362 237T363 221Q363 196 357 162T335 98T294 46T229 24Q193 24 161 44T104 97T65 170T50 251Q50 309 57 350T79 423Q79 426 76 429T72 437Q72 442 81 450T104 465T131 478T152
484Q156 484 165 480T190 476Q195 476 200 477T211 478Q232 478 256 459T302 408T339 338T360 258ZM320 219Q320 238 312 273T288 343T250 404T199 430Q197 430 192 430T179 431T166 432T159 433Q143 433 132 418T113 379T101 324T97 262Q97 251 103 220T124 155T166
95T232 69Q259 69 276 85T302 126T316 175T320 219ZM271 650Q271 642 259 627T231 596T197 567T169 548Q161 544 155 543T145 542Q137 542 125 551T113 568Q113 570 122 573T142 583Q152 589 168 602T201 629T231 653T250 663Q257 663 264 659T271 650Z" />
<glyph unicode="&#xd4;" glyph-name="Ocircumflex" horiz-adv-x="403" d="M360 258Q362 245 362 237T363 221Q363 196 357 162T335 98T294 46T229 24Q193 24 161 44T104 97T65 170T50 251Q50 309 57 350T79 423Q79 426 76 429T72 437Q72 442 81 450T104 465T131
478T152 484Q156 484 165 480T190 476Q195 476 200 477T211 478Q232 478 256 459T302 408T339 338T360 258ZM320 219Q320 238 312 273T288 343T250 404T199 430Q197 430 192 430T179 431T166 432T159 433Q143 433 132 418T113 379T101 324T97 262Q97 251 103 220T124
155T166 95T232 69Q259 69 276 85T302 126T316 175T320 219ZM299 514Q297 513 292 511T281 508Q270 508 260 512T242 521Q225 530 213 543T190 571T172 598T158 618Q144 601 127 586T86 556Q78 552 75 552Q68 552 65 557T61 567Q61 573 66 578Q78 590 90 606T114
637T137 662T157 672Q175 672 188 658T215 623T244 581T281 544Q291 544 300 540T309 529Q309 524 305 520T299 514Z" />
<glyph unicode="&#xd5;" glyph-name="Otilde" horiz-adv-x="403" d="M360 258Q362 245 362 237T363 221Q363 196 357 162T335 98T294 46T229 24Q193 24 161 44T104 97T65 170T50 251Q50 309 57 350T79 423Q79 426 76 429T72 437Q72 442 81 450T104 465T131 478T152
484Q156 484 165 480T190 476Q195 476 200 477T211 478Q232 478 256 459T302 408T339 338T360 258ZM320 219Q320 238 312 273T288 343T250 404T199 430Q197 430 192 430T179 431T166 432T159 433Q143 433 132 418T113 379T101 324T97 262Q97 251 103 220T124 155T166
95T232 69Q259 69 276 85T302 126T316 175T320 219ZM309 593Q309 582 305 570T293 548T272 530T242 523Q229 523 215 530T188 547T164 571T143 599L89 557Q81 551 73 551Q62 551 60 555T58 566Q58 572 69 585T96 612T127 636T151 647Q161 647 172 635T194 608Q209
589 220 577T241 565Q252 565 255 576T258 598Q258 600 258 602T257 606Q265 614 270 616T283 619Q295 619 302 609T309 593Z" />
<glyph unicode="&#xd6;" glyph-name="Odieresis" horiz-adv-x="403" d="M360 258Q362 245 362 237T363 221Q363 196 357 162T335 98T294 46T229 24Q193 24 161 44T104 97T65 170T50 251Q50 309 57 350T79 423Q79 426 76 429T72 437Q72 442 81 450T104 465T131
478T152 484Q156 484 165 480T190 476Q195 476 200 477T211 478Q232 478 256 459T302 408T339 338T360 258ZM320 219Q320 238 312 273T288 343T250 404T199 430Q197 430 192 430T179 431T166 432T159 433Q143 433 132 418T113 379T101 324T97 262Q97 251 103 220T124
155T166 95T232 69Q259 69 276 85T302 126T316 175T320 219ZM160 565Q160 563 155 557T143 545T127 533T112 528Q108 528 102 528T89 532T77 540T72 555Q72 569 82 581T108 594Q111 594 119 592T137 585T153 576T160 565ZM283 568Q283 562 277 557T264 547T249
540T241 537Q232 537 228 541T221 551T218 562T217 569Q217 573 219 579T225 592T234 602T247 607Q260 607 271 596T283 568Z" />
<glyph unicode="&#xd7;" glyph-name="multiply" horiz-adv-x="370" d="M80 133Q80 144 94 164T126 204T157 240T172 261Q172 268 170 273T162 288T147 312T125 354Q123 358 123 360Q123 364 128 372T142 380Q150 380 156 374T165 365Q172 356 179 344T193 319T204
299T209 292Q217 301 224 310T238 328T254 341T271 347Q275 347 278 343T283 334T287 323T289 315Q289 308 284 304T269 293T249 279T226 255Q239 231 247 219T260 201T267 194T272 190Q281 178 281 167Q281 160 276 157T266 153Q256 153 248 155T231 165T213 185T192
221Q179 214 167 199T142 167T116 139T87 127Q84 127 82 129T80 133Z" />
<glyph unicode="&#xd8;" glyph-name="Oslash" horiz-adv-x="403" d="M314 517Q320 515 320 505Q320 486 310 465T292 422Q317 390 336 347T360 258Q362 245 362 237T363 221Q363 196 357 162T335 98T294 46T229 24Q191 24 157 47Q137 8 112 -26Q104 -37 102 -37Q99
-37 96 -27T92 -14Q92 -12 120 59Q121 65 125 72Q91 106 71 154T50 251Q50 309 57 350T79 423Q79 426 76 429T72 437Q72 442 81 450T104 465T131 478T152 484Q156 484 165 480T190 476Q195 476 200 477T211 478Q222 478 234 472T260 455Q273 485 284 503T301 522Q303
522 306 521T314 517ZM97 262Q97 255 99 239T107 203T121 162T143 121Q155 154 169 190T196 265T222 340T243 410Q233 419 222 424T199 430Q197 430 192 430T179 431T166 432T159 433Q143 433 132 418T113 379T101 324T97 262ZM320 219Q320 230 317 248T309 286T295
328T275 369Q253 300 230 227T176 87Q188 79 201 74T232 69Q259 69 276 85T302 126T316 175T320 219Z" />
<glyph unicode="&#xd9;" glyph-name="Ugrave" horiz-adv-x="399" d="M440 -46Q440 -58 434 -61T420 -65Q414 -65 404 -63Q399 -62 390 -54T369 -34Q357 -22 343 -7L293 50Q291 47 284 38T267 18T242 -1T212 -9Q201 -9 186 -3T154 16T123 45T96 83Q82 110 73 139T58
199T50 258T48 314Q48 351 51 367T75 383Q83 383 87 378T92 366Q92 310 100 253T123 148T160 70T213 40Q226 40 236 49T252 72T262 97T266 115Q260 129 254 152T242 204T234 262T231 320Q231 363 231 390T235 433T244 454T261 460Q267 460 272 457T281 449T287
441T289 436Q289 432 287 430T285 423Q285 415 287 400T293 369Q299 337 304 296T310 201V159Q310 151 318 127T357 55Q377 23 394 4T423 -26Q430 -32 435 -37T440 -46ZM287 288Q286 294 284 303T280 321T276 336T274 342Q274 331 274 316T276 285T280 255T285
230Q285 237 286 244Q286 250 286 257T287 273V288ZM23 613Q26 616 30 616Q35 616 42 613T57 604Q64 599 78 585T106 554T132 523T148 506Q149 505 153 504T162 502T171 498T175 493Q175 485 165 474T147 463Q141 463 128 470Q114 477 96 496T62 538T34 580T22
610Q22 611 22 611T23 613Z" />
<glyph unicode="&#xda;" glyph-name="Uacute" horiz-adv-x="399" d="M440 -46Q440 -58 434 -61T420 -65Q414 -65 404 -63Q399 -62 390 -54T369 -34Q357 -22 343 -7L293 50Q291 47 284 38T267 18T242 -1T212 -9Q201 -9 186 -3T154 16T123 45T96 83Q82 110 73 139T58
199T50 258T48 314Q48 351 51 367T75 383Q83 383 87 378T92 366Q92 310 100 253T123 148T160 70T213 40Q226 40 236 49T252 72T262 97T266 115Q260 129 254 152T242 204T234 262T231 320Q231 363 231 390T235 433T244 454T261 460Q267 460 272 457T281 449T287
441T289 436Q289 432 287 430T285 423Q285 415 287 400T293 369Q299 337 304 296T310 201V159Q310 151 318 127T357 55Q377 23 394 4T423 -26Q430 -32 435 -37T440 -46ZM287 288Q286 294 284 303T280 321T276 336T274 342Q274 331 274 316T276 285T280 255T285
230Q285 237 286 244Q286 250 286 257T287 273V288ZM262 581Q262 573 250 558T222 527T188 498T160 479Q152 475 146 474T136 473Q128 473 116 482T104 499Q104 501 113 504T133 514Q143 520 159 533T192 560T222 584T241 594Q248 594 255 590T262 581Z" />
<glyph unicode="&#xdb;" glyph-name="Ucircumflex" horiz-adv-x="399" d="M440 -46Q440 -58 434 -61T420 -65Q414 -65 404 -63Q399 -62 390 -54T369 -34Q357 -22 343 -7L293 50Q291 47 284 38T267 18T242 -1T212 -9Q201 -9 186 -3T154 16T123 45T96 83Q82 110
73 139T58 199T50 258T48 314Q48 351 51 367T75 383Q83 383 87 378T92 366Q92 310 100 253T123 148T160 70T213 40Q226 40 236 49T252 72T262 97T266 115Q260 129 254 152T242 204T234 262T231 320Q231 363 231 390T235 433T244 454T261 460Q267 460 272 457T281
449T287 441T289 436Q289 432 287 430T285 423Q285 415 287 400T293 369Q299 337 304 296T310 201V159Q310 151 318 127T357 55Q377 23 394 4T423 -26Q430 -32 435 -37T440 -46ZM287 288Q286 294 284 303T280 321T276 336T274 342Q274 331 274 316T276 285T280
255T285 230Q285 237 286 244Q286 250 286 257T287 273V288ZM285 502Q283 501 278 499T267 496Q256 496 246 500T228 509Q211 518 199 531T176 559T158 586T144 606Q130 589 113 574T72 544Q64 540 61 540Q54 540 51 545T47 555Q47 561 52 566Q64 578 76 594T100
625T123 650T143 660Q161 660 174 646T201 611T230 569T267 532Q277 532 286 528T295 517Q295 512 291 508T285 502Z" />
<glyph unicode="&#xdc;" glyph-name="Udieresis" horiz-adv-x="399" d="M440 -46Q440 -58 434 -61T420 -65Q414 -65 404 -63Q399 -62 390 -54T369 -34Q357 -22 343 -7L293 50Q291 47 284 38T267 18T242 -1T212 -9Q201 -9 186 -3T154 16T123 45T96 83Q82 110 73
139T58 199T50 258T48 314Q48 351 51 367T75 383Q83 383 87 378T92 366Q92 310 100 253T123 148T160 70T213 40Q226 40 236 49T252 72T262 97T266 115Q260 129 254 152T242 204T234 262T231 320Q231 363 231 390T235 433T244 454T261 460Q267 460 272 457T281 449T287
441T289 436Q289 432 287 430T285 423Q285 415 287 400T293 369Q299 337 304 296T310 201V159Q310 151 318 127T357 55Q377 23 394 4T423 -26Q430 -32 435 -37T440 -46ZM287 288Q286 294 284 303T280 321T276 336T274 342Q274 331 274 316T276 285T280 255T285
230Q285 237 286 244Q286 250 286 257T287 273V288ZM131 528Q131 526 126 520T114 508T98 496T83 491Q79 491 73 491T60 495T48 503T43 518Q43 532 53 544T79 557Q82 557 90 555T108 548T124 539T131 528ZM254 531Q254 525 248 520T235 510T220 503T212 500Q203
500 199 504T192 514T189 525T188 532Q188 536 190 542T196 555T205 565T218 570Q231 570 242 559T254 531Z" />
<glyph unicode="&#xdd;" glyph-name="Yacute" horiz-adv-x="314" d="M317 335Q317 321 311 315T296 309Q287 309 279 312T257 320L242 326Q240 321 240 314T239 301Q239 266 242 225T249 143T258 63T268 -7T275 -60T278 -88V-113Q278 -124 276 -133T265 -142Q250
-142 240 -118T223 -62T213 -1T210 39Q210 46 208 73T202 133T197 201T194 260Q194 270 194 282T193 306V337Q193 353 171 370T116 407T50 454T-6 518Q-9 519 -9 527Q-9 541 -3 552T13 563Q16 563 22 556T37 537T58 513T85 487Q95 478 113 465T148 438T179 416T193
406Q197 406 198 414T199 424L204 484Q209 535 216 576T224 649Q224 652 222 661T220 673Q220 679 224 682T233 688Q239 691 247 692Q261 692 267 682T273 662Q273 626 269 592T259 524T249 455T244 380Q244 374 251 368T268 356T292 345T317 335ZM241 772Q241
764 229 749T201 718T167 689T139 670Q131 666 125 665T115 664Q107 664 95 673T83 690Q83 692 92 695T112 705Q122 711 138 724T171 751T201 775T220 785Q227 785 234 781T241 772Z" />
<glyph unicode="&#xde;" glyph-name="Thorn" horiz-adv-x="376" d="M152 4Q150 15 136 53T103 149Q98 165 94 182T86 214T82 239T80 251Q80 255 77 272T68 325T56 418T42 561Q42 570 45 584T59 598Q70 598 77 583T89 545T96 496T101 445Q132 455 161 460T213 466Q259
466 284 454T320 426T334 397T336 381Q336 342 312 303T256 230T197 171T159 136L173 90Q184 68 193 40T202 -1Q202 -12 197 -23T178 -34Q168 -34 160 -25T151 -3Q151 -1 151 0T152 4ZM287 394Q285 405 264 411T211 418Q177 418 148 411T106 399Q109 372 112 348T120
300T129 248T143 185Q161 202 185 226T233 278T272 333T288 384Q288 387 288 389T287 394Z" />
<glyph unicode="&#xdf;" glyph-name="germandbls" horiz-adv-x="491" d="M448 201Q448 184 441 169T423 140T400 115T376 95Q372 92 358 82T327 60T292 41T263 32Q255 32 251 39T247 52Q247 58 254 71T272 92Q275 94 279 95T288 97Q292 98 298 98Q326 113 349
130Q369 144 385 161T401 198Q401 201 392 204T362 207Q342 207 321 201T281 186T247 172T223 165Q206 165 199 174T192 194Q192 205 196 217T211 236Q224 244 245 265T288 311T327 360T350 399Q358 399 365 392T372 372Q372 348 361 327T332 288T295 253T259 221Q280
231 308 242T356 253Q361 253 376 252T407 247T435 231T448 201ZM319 541Q320 539 321 534T322 522Q322 515 317 515Q315 515 312 516T307 518Q298 522 287 528T263 541T235 552T204 557Q168 557 146 530T113 468T98 398T94 349Q94 317 100 289T115 236T134 189T152
147Q158 133 171 108T196 54T219 -7T229 -64Q229 -69 227 -82T220 -110T207 -135T189 -146Q181 -146 172 -142T162 -126Q162 -110 170 -96T178 -66Q178 -49 168 -18T144 45T120 102T105 132Q94 152 84 179T65 238T51 304T46 371Q46 407 54 447T81 520T128 575T195
597Q213 597 233 593T271 581T302 563T319 541Z" />
<glyph unicode="&#xe0;" glyph-name="agrave" horiz-adv-x="487" d="M515 208Q515 190 499 164T454 112T389 70T312 52Q294 52 274 58T235 75T201 103T179 141Q173 135 165 121T146 93T124 68T99 57Q86 57 78 70T64 100T57 132T55 149Q55 161 62 194T83 264T118
328T169 356Q180 356 183 347T187 328V298Q192 294 197 293T207 289T214 281T217 265Q217 258 216 253T215 242Q215 216 219 191T235 147T268 115T324 102Q368 102 398 120T449 161T482 202T502 221Q515 221 515 208ZM164 252Q164 256 162 259T160 266Q160 270
162 273T164 281Q164 284 162 285T160 289Q151 287 142 272T124 237T110 197T105 163Q105 156 109 140T118 119Q135 154 149 187T164 252ZM56 548Q59 551 63 551Q68 551 75 548T90 539Q97 534 111 520T139 489T165 458T181 441Q182 440 186 439T195 437T204 433T208
428Q208 420 198 409T180 398Q174 398 161 405Q147 412 129 431T95 473T67 515T55 545Q55 546 55 546T56 548Z" />
<glyph unicode="&#xe1;" glyph-name="aacute" horiz-adv-x="487" d="M515 208Q515 190 499 164T454 112T389 70T312 52Q294 52 274 58T235 75T201 103T179 141Q173 135 165 121T146 93T124 68T99 57Q86 57 78 70T64 100T57 132T55 149Q55 161 62 194T83 264T118
328T169 356Q180 356 183 347T187 328V298Q192 294 197 293T207 289T214 281T217 265Q217 258 216 253T215 242Q215 216 219 191T235 147T268 115T324 102Q368 102 398 120T449 161T482 202T502 221Q515 221 515 208ZM164 252Q164 256 162 259T160 266Q160 270
162 273T164 281Q164 284 162 285T160 289Q151 287 142 272T124 237T110 197T105 163Q105 156 109 140T118 119Q135 154 149 187T164 252ZM289 504Q289 496 277 481T249 450T215 421T187 402Q179 398 173 397T163 396Q155 396 143 405T131 422Q131 424 140 427T160
437Q170 443 186 456T219 483T249 507T268 517Q275 517 282 513T289 504Z" />
<glyph unicode="&#xe2;" glyph-name="acircumflex" horiz-adv-x="487" d="M515 208Q515 190 499 164T454 112T389 70T312 52Q294 52 274 58T235 75T201 103T179 141Q173 135 165 121T146 93T124 68T99 57Q86 57 78 70T64 100T57 132T55 149Q55 161 62 194T83 264T118
328T169 356Q180 356 183 347T187 328V298Q192 294 197 293T207 289T214 281T217 265Q217 258 216 253T215 242Q215 216 219 191T235 147T268 115T324 102Q368 102 398 120T449 161T482 202T502 221Q515 221 515 208ZM164 252Q164 256 162 259T160 266Q160 270
162 273T164 281Q164 284 162 285T160 289Q151 287 142 272T124 237T110 197T105 163Q105 156 109 140T118 119Q135 154 149 187T164 252ZM300 402Q298 401 293 399T282 396Q271 396 261 400T243 409Q226 418 214 431T191 459T173 486T159 506Q145 489 128 474T87
444Q79 440 76 440Q69 440 66 445T62 455Q62 461 67 466Q79 478 91 494T115 525T138 550T158 560Q176 560 189 546T216 511T245 469T282 432Q292 432 301 428T310 417Q310 412 306 408T300 402Z" />
<glyph unicode="&#xe3;" glyph-name="atilde" horiz-adv-x="487" d="M515 208Q515 190 499 164T454 112T389 70T312 52Q294 52 274 58T235 75T201 103T179 141Q173 135 165 121T146 93T124 68T99 57Q86 57 78 70T64 100T57 132T55 149Q55 161 62 194T83 264T118
328T169 356Q180 356 183 347T187 328V298Q192 294 197 293T207 289T214 281T217 265Q217 258 216 253T215 242Q215 216 219 191T235 147T268 115T324 102Q368 102 398 120T449 161T482 202T502 221Q515 221 515 208ZM164 252Q164 256 162 259T160 266Q160 270
162 273T164 281Q164 284 162 285T160 289Q151 287 142 272T124 237T110 197T105 163Q105 156 109 140T118 119Q135 154 149 187T164 252ZM328 474Q328 463 324 451T312 429T291 411T261 404Q248 404 234 411T207 428T183 452T162 480L108 438Q100 432 92 432Q81
432 79 436T77 447Q77 453 88 466T115 493T146 517T170 528Q180 528 191 516T213 489Q228 470 239 458T260 446Q271 446 274 457T277 479Q277 481 277 483T276 487Q284 495 289 497T302 500Q314 500 321 490T328 474Z" />
<glyph unicode="&#xe4;" glyph-name="adieresis" horiz-adv-x="487" d="M515 208Q515 190 499 164T454 112T389 70T312 52Q294 52 274 58T235 75T201 103T179 141Q173 135 165 121T146 93T124 68T99 57Q86 57 78 70T64 100T57 132T55 149Q55 161 62 194T83 264T118
328T169 356Q180 356 183 347T187 328V298Q192 294 197 293T207 289T214 281T217 265Q217 258 216 253T215 242Q215 216 219 191T235 147T268 115T324 102Q368 102 398 120T449 161T482 202T502 221Q515 221 515 208ZM164 252Q164 256 162 259T160 266Q160 270
162 273T164 281Q164 284 162 285T160 289Q151 287 142 272T124 237T110 197T105 163Q105 156 109 140T118 119Q135 154 149 187T164 252ZM129 441Q129 439 124 433T112 421T96 409T81 404Q77 404 71 404T58 408T46 416T41 431Q41 445 51 457T77 470Q80 470 88
468T106 461T122 452T129 441ZM252 444Q252 438 246 433T233 423T218 416T210 413Q201 413 197 417T190 427T187 438T186 445Q186 449 188 455T194 468T203 478T216 483Q229 483 240 472T252 444Z" />
<glyph unicode="&#xe5;" glyph-name="aring" horiz-adv-x="487" d="M515 208Q515 190 499 164T454 112T389 70T312 52Q294 52 274 58T235 75T201 103T179 141Q173 135 165 121T146 93T124 68T99 57Q86 57 78 70T64 100T57 132T55 149Q55 161 62 194T83 264T118
328T169 356Q180 356 183 347T187 328V298Q192 294 197 293T207 289T214 281T217 265Q217 258 216 253T215 242Q215 216 219 191T235 147T268 115T324 102Q368 102 398 120T449 161T482 202T502 221Q515 221 515 208ZM164 252Q164 256 162 259T160 266Q160 270
162 273T164 281Q164 284 162 285T160 289Q151 287 142 272T124 237T110 197T105 163Q105 156 109 140T118 119Q135 154 149 187T164 252ZM233 498Q241 490 241 476Q241 469 236 456T222 429T198 407T166 397Q140 397 129 409T117 435Q117 451 125 469T147 503T177
529T211 539Q220 539 233 531T247 515Q247 514 243 509T233 498ZM201 492Q200 492 200 492T198 493Q194 493 188 489T175 477T165 462T161 448Q161 437 168 437Q176 437 182 442T194 455T201 471T204 486Q204 490 201 492Z" />
<glyph unicode="&#xe6;" glyph-name="ae" horiz-adv-x="523" d="M497 133Q498 131 498 127Q498 121 489 109Q486 105 476 96T449 78T408 62T350 55Q321 55 294 71T249 122Q232 79 204 53T145 26Q106 26 84 50T61 129Q61 159 74 179T107 212T145 231T175 237Q181
237 185 232T190 218Q190 204 177 200T148 191T119 172T105 124Q105 98 119 86T148 74Q158 74 171 85T196 116T216 162T224 220Q224 246 215 267T190 302T155 325T114 333Q106 333 97 331T80 325T65 319T55 316Q50 316 47 320T43 331Q43 337 52 349Q58 357 82 368T143
379Q172 379 199 363T244 313Q260 355 285 381T334 408Q350 408 366 402T396 385T418 363T426 337Q426 322 413 306T380 277T342 255T312 246Q306 246 302 251T297 265Q297 279 309 287T337 301T364 317T377 342Q377 344 372 352T345 360Q335 360 322 349T297 318T277
272T269 214Q269 188 278 167T303 132T338 109T379 101Q394 101 411 107T444 121T471 135T486 142Q489 142 492 139T497 133Z" />
<glyph unicode="&#xe7;" glyph-name="ccedilla" horiz-adv-x="368" d="M328 182Q328 172 325 162T319 144Q317 141 303 126T266 92T215 58T160 38L150 27Q145 22 137 14T127 -4Q129 -8 133 -9T143 -10Q146 -10 160 -9T181 -8Q188 -8 204 -10T238 -20T269 -41T282
-77Q282 -95 268 -107T236 -128T202 -141T180 -145Q163 -145 151 -132T138 -102Q138 -99 143 -99Q148 -99 155 -101T170 -103Q172 -103 182 -101T203 -94T224 -83T234 -69Q234 -64 229 -60T215 -52T199 -47T183 -45Q170 -45 164 -46T145 -47Q138 -47 128 -46T107
-41T90 -29T83 -7Q83 -1 92 13T114 42Q88 51 67 75T45 145Q45 193 61 232T93 294Q100 305 111 316T134 337T154 353T168 359Q177 359 184 354T192 344Q192 336 188 331T175 319T156 302T133 274Q109 241 98 207T86 146Q86 120 105 105T146 89Q184 89 213 106T264
144T298 182T317 199Q328 199 328 182Z" />
<glyph unicode="&#xe8;" glyph-name="egrave" horiz-adv-x="349" d="M318 105Q319 103 319 99Q319 93 310 81Q307 77 297 68T270 50T229 34T171 27Q148 27 126 37T87 68T59 119T48 191Q48 230 58 264T83 324T118 365T155 380Q171 380 187 374T217 357T239 335T247
309Q247 294 234 278T201 249T163 227T133 218Q127 218 123 223T118 237Q118 251 130 259T158 273T185 289T198 314Q198 316 193 324T166 332Q156 332 143 321T118 290T98 244T90 186Q90 160 99 139T124 104T159 81T200 73Q215 73 232 79T265 93T292 107T307 114Q310
114 313 111T318 105ZM50 562Q53 565 57 565Q62 565 69 562T84 553Q91 548 105 534T133 503T159 472T175 455Q176 454 180 453T189 451T198 447T202 442Q202 434 192 423T174 412Q168 412 155 419Q141 426 123 445T89 487T61 529T49 559Q49 560 49 560T50 562Z"
/>
<glyph unicode="&#xe9;" glyph-name="eacute" horiz-adv-x="349" d="M318 105Q319 103 319 99Q319 93 310 81Q307 77 297 68T270 50T229 34T171 27Q148 27 126 37T87 68T59 119T48 191Q48 230 58 264T83 324T118 365T155 380Q171 380 187 374T217 357T239 335T247
309Q247 294 234 278T201 249T163 227T133 218Q127 218 123 223T118 237Q118 251 130 259T158 273T185 289T198 314Q198 316 193 324T166 332Q156 332 143 321T118 290T98 244T90 186Q90 160 99 139T124 104T159 81T200 73Q215 73 232 79T265 93T292 107T307 114Q310
114 313 111T318 105ZM261 528Q261 520 249 505T221 474T187 445T159 426Q151 422 145 421T135 420Q127 420 115 429T103 446Q103 448 112 451T132 461Q142 467 158 480T191 507T221 531T240 541Q247 541 254 537T261 528Z" />
<glyph unicode="&#xea;" glyph-name="ecircumflex" horiz-adv-x="349" d="M318 105Q319 103 319 99Q319 93 310 81Q307 77 297 68T270 50T229 34T171 27Q148 27 126 37T87 68T59 119T48 191Q48 230 58 264T83 324T118 365T155 380Q171 380 187 374T217 357T239
335T247 309Q247 294 234 278T201 249T163 227T133 218Q127 218 123 223T118 237Q118 251 130 259T158 273T185 289T198 314Q198 316 193 324T166 332Q156 332 143 321T118 290T98 244T90 186Q90 160 99 139T124 104T159 81T200 73Q215 73 232 79T265 93T292 107T307
114Q310 114 313 111T318 105ZM308 402Q306 401 301 399T290 396Q279 396 269 400T251 409Q234 418 222 431T199 459T181 486T167 506Q153 489 136 474T95 444Q87 440 84 440Q77 440 74 445T70 455Q70 461 75 466Q87 478 99 494T123 525T146 550T166 560Q184 560
197 546T224 511T253 469T290 432Q300 432 309 428T318 417Q318 412 314 408T308 402Z" />
<glyph unicode="&#xeb;" glyph-name="edieresis" horiz-adv-x="349" d="M318 105Q319 103 319 99Q319 93 310 81Q307 77 297 68T270 50T229 34T171 27Q148 27 126 37T87 68T59 119T48 191Q48 230 58 264T83 324T118 365T155 380Q171 380 187 374T217 357T239 335T247
309Q247 294 234 278T201 249T163 227T133 218Q127 218 123 223T118 237Q118 251 130 259T158 273T185 289T198 314Q198 316 193 324T166 332Q156 332 143 321T118 290T98 244T90 186Q90 160 99 139T124 104T159 81T200 73Q215 73 232 79T265 93T292 107T307 114Q310
114 313 111T318 105ZM153 462Q153 460 148 454T136 442T120 430T105 425Q101 425 95 425T82 429T70 437T65 452Q65 466 75 478T101 491Q104 491 112 489T130 482T146 473T153 462ZM276 465Q276 459 270 454T257 444T242 437T234 434Q225 434 221 438T214 448T211
459T210 466Q210 470 212 476T218 489T227 499T240 504Q253 504 264 493T276 465Z" />
<glyph unicode="&#xec;" glyph-name="igrave" horiz-adv-x="155" d="M132 86Q132 79 122 74T106 69Q96 69 88 82T74 112T64 144T58 166Q55 176 50 190T41 217T33 240T30 251Q30 265 35 277T49 289Q58 289 68 275T87 240T105 193T119 145T128 106T132 86ZM-111
548Q-108 551 -104 551Q-99 551 -92 548T-77 539Q-70 534 -56 520T-28 489T-2 458T14 441Q15 440 19 439T28 437T37 433T41 428Q41 420 31 409T13 398Q7 398 -6 405Q-20 412 -38 431T-72 473T-100 515T-112 545Q-112 546 -112 546T-111 548Z" />
<glyph unicode="&#xed;" glyph-name="iacute" horiz-adv-x="155" d="M132 86Q132 79 122 74T106 69Q96 69 88 82T74 112T64 144T58 166Q55 176 50 190T41 217T33 240T30 251Q30 265 35 277T49 289Q58 289 68 275T87 240T105 193T119 145T128 106T132 86ZM157 504Q157
496 145 481T117 450T83 421T55 402Q47 398 41 397T31 396Q23 396 11 405T-1 422Q-1 424 8 427T28 437Q38 443 54 456T87 483T117 507T136 517Q143 517 150 513T157 504Z" />
<glyph unicode="&#xee;" glyph-name="icircumflex" horiz-adv-x="155" d="M132 86Q132 79 122 74T106 69Q96 69 88 82T74 112T64 144T58 166Q55 176 50 190T41 217T33 240T30 251Q30 265 35 277T49 289Q58 289 68 275T87 240T105 193T119 145T128 106T132 86ZM155
402Q153 401 148 399T137 396Q126 396 116 400T98 409Q81 418 69 431T46 459T28 486T14 506Q0 489 -17 474T-58 444Q-66 440 -69 440Q-76 440 -79 445T-83 455Q-83 461 -78 466Q-66 478 -54 494T-30 525T-7 550T13 560Q31 560 44 546T71 511T100 469T137 432Q147
432 156 428T165 417Q165 412 161 408T155 402Z" />
<glyph unicode="&#xef;" glyph-name="idieresis" horiz-adv-x="155" d="M132 86Q132 79 122 74T106 69Q96 69 88 82T74 112T64 144T58 166Q55 176 50 190T41 217T33 240T30 251Q30 265 35 277T49 289Q58 289 68 275T87 240T105 193T119 145T128 106T132 86ZM1
441Q1 439 -4 433T-16 421T-32 409T-47 404Q-51 404 -57 404T-70 408T-82 416T-87 431Q-87 445 -77 457T-51 470Q-48 470 -40 468T-22 461T-6 452T1 441ZM124 444Q124 438 118 433T105 423T90 416T82 413Q73 413 69 417T62 427T59 438T58 445Q58 449 60 455T66
468T75 478T88 483Q101 483 112 472T124 444Z" />
<glyph unicode="&#xf0;" glyph-name="eth" horiz-adv-x="334" d="M276 598Q276 587 257 565T212 520Q225 488 237 453T257 383T270 316T275 258V193Q275 189 276 184T279 173Q281 168 285 156T289 143Q289 139 287 132T280 119T272 107T264 102Q260 102 254 107T242
113Q237 113 230 102Q220 84 200 72T163 60Q148 60 128 76T91 118T62 172T50 226Q50 244 53 261T65 293T89 315T130 324Q141 324 155 318T184 303T210 283T228 260Q227 311 214 372T176 488Q159 474 144 464T121 449Q112 444 104 443T92 442Q82 442 69 451T55 470Q55
470 65 473L90 486Q98 491 116 505T153 533Q139 558 122 579T86 614Q80 619 75 623T69 632Q69 637 78 645T107 653Q127 653 149 628T192 564Q213 581 231 594T254 608Q262 608 269 605T276 598ZM95 233Q95 219 102 199T120 160T145 128T174 115Q180 115 189 122T205
140T218 162T224 180Q224 188 214 204T189 235T157 263T125 275Q108 275 102 265T95 233Z" />
<glyph unicode="&#xf1;" glyph-name="ntilde" horiz-adv-x="352" d="M340 123Q340 117 336 111T327 100T315 92T303 88Q286 88 260 95T217 119Q200 136 187 159T158 229Q147 185 133 142T86 63Q84 61 80 61Q73 61 65 68T57 82Q57 89 56 114T52 171T49 235T47 289Q47
299 48 315T54 344Q55 346 61 352T76 358Q83 358 84 349T85 329V171Q85 166 86 157T91 144Q102 168 111 200T130 262T148 312T166 333Q176 333 182 329T192 313Q197 284 200 262T207 221T220 188T244 159Q258 146 275 140T306 134Q312 134 319 136T329 139Q333
139 336 132T340 123ZM301 474Q301 463 297 451T285 429T264 411T234 404Q221 404 207 411T180 428T156 452T135 480L81 438Q73 432 65 432Q54 432 52 436T50 447Q50 453 61 466T88 493T119 517T143 528Q153 528 164 516T186 489Q201 470 212 458T233 446Q244 446
247 457T250 479Q250 481 250 483T249 487Q257 495 262 497T275 500Q287 500 294 490T301 474Z" />
<glyph unicode="&#xf2;" glyph-name="ograve" horiz-adv-x="280" d="M219 216Q219 194 213 174T197 139T174 116T144 107Q116 107 100 123T76 160T65 202T62 235Q62 253 67 275T82 317T104 349T129 362Q132 362 138 360T152 354T164 344T172 330Q183 329 194 322T206
311Q214 285 216 259T219 216ZM174 234Q174 249 171 265T159 299Q157 298 154 298Q150 298 148 299T143 300Q131 300 124 294T114 277T109 254T108 231Q108 220 109 207T113 181T123 161T139 152Q149 152 156 162T167 187T172 214T174 234ZM31 551Q34 554 38 554Q43
554 50 551T65 542Q72 537 86 523T114 492T140 461T156 444Q157 443 161 442T170 440T179 436T183 431Q183 423 173 412T155 401Q149 401 136 408Q122 415 104 434T70 476T42 518T30 548Q30 549 30 549T31 551Z" />
<glyph unicode="&#xf3;" glyph-name="oacute" horiz-adv-x="280" d="M219 216Q219 194 213 174T197 139T174 116T144 107Q116 107 100 123T76 160T65 202T62 235Q62 253 67 275T82 317T104 349T129 362Q132 362 138 360T152 354T164 344T172 330Q183 329 194 322T206
311Q214 285 216 259T219 216ZM174 234Q174 249 171 265T159 299Q157 298 154 298Q150 298 148 299T143 300Q131 300 124 294T114 277T109 254T108 231Q108 220 109 207T113 181T123 161T139 152Q149 152 156 162T167 187T172 214T174 234ZM252 508Q252 500 240
485T212 454T178 425T150 406Q142 402 136 401T126 400Q118 400 106 409T94 426Q94 428 103 431T123 441Q133 447 149 460T182 487T212 511T231 521Q238 521 245 517T252 508Z" />
<glyph unicode="&#xf4;" glyph-name="ocircumflex" horiz-adv-x="280" d="M219 216Q219 194 213 174T197 139T174 116T144 107Q116 107 100 123T76 160T65 202T62 235Q62 253 67 275T82 317T104 349T129 362Q132 362 138 360T152 354T164 344T172 330Q183 329
194 322T206 311Q214 285 216 259T219 216ZM174 234Q174 249 171 265T159 299Q157 298 154 298Q150 298 148 299T143 300Q131 300 124 294T114 277T109 254T108 231Q108 220 109 207T113 181T123 161T139 152Q149 152 156 162T167 187T172 214T174 234ZM281 402Q279
401 274 399T263 396Q252 396 242 400T224 409Q207 418 195 431T172 459T154 486T140 506Q126 489 109 474T68 444Q60 440 57 440Q50 440 47 445T43 455Q43 461 48 466Q60 478 72 494T96 525T119 550T139 560Q157 560 170 546T197 511T226 469T263 432Q273 432
282 428T291 417Q291 412 287 408T281 402Z" />
<glyph unicode="&#xf5;" glyph-name="otilde" horiz-adv-x="280" d="M219 216Q219 194 213 174T197 139T174 116T144 107Q116 107 100 123T76 160T65 202T62 235Q62 253 67 275T82 317T104 349T129 362Q132 362 138 360T152 354T164 344T172 330Q183 329 194 322T206
311Q214 285 216 259T219 216ZM174 234Q174 249 171 265T159 299Q157 298 154 298Q150 298 148 299T143 300Q131 300 124 294T114 277T109 254T108 231Q108 220 109 207T113 181T123 161T139 152Q149 152 156 162T167 187T172 214T174 234ZM266 474Q266 463 262
451T250 429T229 411T199 404Q186 404 172 411T145 428T121 452T100 480L46 438Q38 432 30 432Q19 432 17 436T15 447Q15 453 26 466T53 493T84 517T108 528Q118 528 129 516T151 489Q166 470 177 458T198 446Q209 446 212 457T215 479Q215 481 215 483T214 487Q222
495 227 497T240 500Q252 500 259 490T266 474Z" />
<glyph unicode="&#xf6;" glyph-name="odieresis" horiz-adv-x="280" d="M219 216Q219 194 213 174T197 139T174 116T144 107Q116 107 100 123T76 160T65 202T62 235Q62 253 67 275T82 317T104 349T129 362Q132 362 138 360T152 354T164 344T172 330Q183 329 194
322T206 311Q214 285 216 259T219 216ZM174 234Q174 249 171 265T159 299Q157 298 154 298Q150 298 148 299T143 300Q131 300 124 294T114 277T109 254T108 231Q108 220 109 207T113 181T123 161T139 152Q149 152 156 162T167 187T172 214T174 234ZM122 441Q122
439 117 433T105 421T89 409T74 404Q70 404 64 404T51 408T39 416T34 431Q34 445 44 457T70 470Q73 470 81 468T99 461T115 452T122 441ZM245 444Q245 438 239 433T226 423T211 416T203 413Q194 413 190 417T183 427T180 438T179 445Q179 449 181 455T187 468T196
478T209 483Q222 483 233 472T245 444Z" />
<glyph unicode="&#xf7;" glyph-name="divide" horiz-adv-x="358" d="M211 115Q211 104 199 95T165 85Q157 85 149 90T140 105Q140 125 151 140T177 156Q181 156 187 152T198 142T207 129T211 115ZM207 306Q207 300 201 295T188 285T173 278T165 275Q156 275 152
279T145 289T142 300T141 307Q141 311 143 317T149 330T158 340T171 345Q184 345 195 334T207 306ZM308 242Q308 236 305 229T296 220Q288 217 259 211T187 199Q173 197 152 196T103 192Q98 191 82 186T55 180Q48 180 43 183T38 196Q38 206 45 212T61 222T79 228T91
230Q124 234 141 234T172 235Q201 239 233 248T288 258Q299 258 303 253T308 242Z" />
<glyph unicode="&#xf8;" glyph-name="oslash" horiz-adv-x="400" d="M333 238Q333 196 323 166T297 114T262 79T224 58T192 47T171 44Q160 44 155 45Q130 -4 102 -43Q94 -53 93 -53Q90 -53 87 -44T83 -32Q83 -30 110 36L119 59Q91 76 73 107T55 178Q55 202 61
225T73 269T86 306T92 332Q92 334 92 337T91 343Q91 352 102 358T118 364Q125 364 138 361T156 357Q161 357 167 357T181 358Q189 359 197 360Q202 360 209 360T224 358Q240 404 255 435T279 467Q281 467 284 466T292 462Q297 459 297 451Q297 443 293 430T283
401T271 371T262 347Q289 336 311 311T333 238ZM135 104Q153 154 173 210T210 318Q207 319 200 319Q180 319 165 316T133 313Q130 304 125 289T115 258T107 226T103 198Q103 175 109 148T135 104ZM176 91Q203 91 224 102T259 134T281 180T288 236Q288 262 277 279T249
306Q233 252 215 197T176 91Z" />
<glyph unicode="&#xf9;" glyph-name="ugrave" horiz-adv-x="369" d="M369 166Q369 157 357 147T329 129T297 114T272 108Q263 108 253 113T233 125T216 138T207 146Q204 143 198 134T184 115T166 96T146 88Q120 88 101 116T70 180T51 249T44 295Q44 302 51 306T63
311Q77 311 82 302T87 281Q87 272 92 249T106 202T123 160T139 141Q152 141 161 157T177 195T186 236T189 262Q189 263 189 268T191 280T192 291T193 298Q193 305 190 307T187 318Q187 324 193 329T219 335Q227 335 231 331T238 320T240 309T241 301Q241 300 240
287T239 259T237 229T236 212Q236 209 239 200T246 182T257 165T270 157Q282 157 292 160T312 168T330 176T345 180Q354 180 361 176T369 166ZM15 548Q18 551 22 551Q27 551 34 548T49 539Q56 534 70 520T98 489T124 458T140 441Q141 440 145 439T154 437T163 433T167
428Q167 420 157 409T139 398Q133 398 120 405Q106 412 88 431T54 473T26 515T14 545Q14 546 14 546T15 548Z" />
<glyph unicode="&#xfa;" glyph-name="uacute" horiz-adv-x="369" d="M369 166Q369 157 357 147T329 129T297 114T272 108Q263 108 253 113T233 125T216 138T207 146Q204 143 198 134T184 115T166 96T146 88Q120 88 101 116T70 180T51 249T44 295Q44 302 51 306T63
311Q77 311 82 302T87 281Q87 272 92 249T106 202T123 160T139 141Q152 141 161 157T177 195T186 236T189 262Q189 263 189 268T191 280T192 291T193 298Q193 305 190 307T187 318Q187 324 193 329T219 335Q227 335 231 331T238 320T240 309T241 301Q241 300 240
287T239 259T237 229T236 212Q236 209 239 200T246 182T257 165T270 157Q282 157 292 160T312 168T330 176T345 180Q354 180 361 176T369 166ZM241 487Q241 479 229 464T201 433T167 404T139 385Q131 381 125 380T115 379Q107 379 95 388T83 405Q83 407 92 410T112
420Q122 426 138 439T171 466T201 490T220 500Q227 500 234 496T241 487Z" />
<glyph unicode="&#xfb;" glyph-name="ucircumflex" horiz-adv-x="369" d="M369 166Q369 157 357 147T329 129T297 114T272 108Q263 108 253 113T233 125T216 138T207 146Q204 143 198 134T184 115T166 96T146 88Q120 88 101 116T70 180T51 249T44 295Q44 302 51
306T63 311Q77 311 82 302T87 281Q87 272 92 249T106 202T123 160T139 141Q152 141 161 157T177 195T186 236T189 262Q189 263 189 268T191 280T192 291T193 298Q193 305 190 307T187 318Q187 324 193 329T219 335Q227 335 231 331T238 320T240 309T241 301Q241
300 240 287T239 259T237 229T236 212Q236 209 239 200T246 182T257 165T270 157Q282 157 292 160T312 168T330 176T345 180Q354 180 361 176T369 166ZM264 402Q262 401 257 399T246 396Q235 396 225 400T207 409Q190 418 178 431T155 459T137 486T123 506Q109
489 92 474T51 444Q43 440 40 440Q33 440 30 445T26 455Q26 461 31 466Q43 478 55 494T79 525T102 550T122 560Q140 560 153 546T180 511T209 469T246 432Q256 432 265 428T274 417Q274 412 270 408T264 402Z" />
<glyph unicode="&#xfc;" glyph-name="udieresis" horiz-adv-x="369" d="M369 166Q369 157 357 147T329 129T297 114T272 108Q263 108 253 113T233 125T216 138T207 146Q204 143 198 134T184 115T166 96T146 88Q120 88 101 116T70 180T51 249T44 295Q44 302 51
306T63 311Q77 311 82 302T87 281Q87 272 92 249T106 202T123 160T139 141Q152 141 161 157T177 195T186 236T189 262Q189 263 189 268T191 280T192 291T193 298Q193 305 190 307T187 318Q187 324 193 329T219 335Q227 335 231 331T238 320T240 309T241 301Q241
300 240 287T239 259T237 229T236 212Q236 209 239 200T246 182T257 165T270 157Q282 157 292 160T312 168T330 176T345 180Q354 180 361 176T369 166ZM128 441Q128 439 123 433T111 421T95 409T80 404Q76 404 70 404T57 408T45 416T40 431Q40 445 50 457T76 470Q79
470 87 468T105 461T121 452T128 441ZM251 444Q251 438 245 433T232 423T217 416T209 413Q200 413 196 417T189 427T186 438T185 445Q185 449 187 455T193 468T202 478T215 483Q228 483 239 472T251 444Z" />
<glyph unicode="&#xfd;" glyph-name="yacute" horiz-adv-x="282" d="M249 468Q236 399 225 335Q220 308 215 279T206 221T198 167T192 120Q188 88 186 47T182 -31Q180 -74 180 -118Q180 -127 178 -138T176 -160Q176 -170 172 -177T158 -184Q150 -184 146 -172T138
-143T134 -110T133 -86Q133 -78 133 -67T134 -33T139 26T148 122Q148 123 135 132T102 154T62 184T27 215Q25 217 21 224T17 241Q17 246 22 251T33 257Q37 257 41 253Q64 233 94 209T153 164Q155 182 161 219T175 298T188 381T198 445Q198 449 200 458T206 476T215
491T226 498Q229 498 239 493T249 468ZM252 605Q252 597 240 582T212 551T178 522T150 503Q142 499 136 498T126 497Q118 497 106 506T94 523Q94 525 103 528T123 538Q133 544 149 557T182 584T212 608T231 618Q238 618 245 614T252 605Z" />
<glyph unicode="&#xfe;" glyph-name="thorn" horiz-adv-x="344" d="M185 -198Q185 -210 179 -216T164 -222Q157 -222 148 -196T129 -132T110 -47T94 38T82 105T77 135Q77 139 74 163T67 226T57 311T47 409T39 509T36 599Q36 609 38 624T55 639Q66 639 70 636T79
615Q83 594 85 565T89 504T92 443T96 388Q101 350 103 318T111 255Q117 271 126 289T146 323T172 349T202 360Q211 360 227 352T258 325T284 275T296 199Q296 163 287 135T265 89T238 61T213 51Q199 51 185 61T171 82Q171 98 184 98Q189 98 195 97T205 94Q222 108
234 133T247 199Q247 223 241 242T227 276T210 297T199 305Q189 305 177 287T153 244T134 197T124 162Q127 137 132 110T143 51L185 -198V-198Z" />
<glyph unicode="&#xff;" glyph-name="ydieresis" horiz-adv-x="282" d="M249 468Q236 399 225 335Q220 308 215 279T206 221T198 167T192 120Q188 88 186 47T182 -31Q180 -74 180 -118Q180 -127 178 -138T176 -160Q176 -170 172 -177T158 -184Q150 -184 146 -172T138
-143T134 -110T133 -86Q133 -78 133 -67T134 -33T139 26T148 122Q148 123 135 132T102 154T62 184T27 215Q25 217 21 224T17 241Q17 246 22 251T33 257Q37 257 41 253Q64 233 94 209T153 164Q155 182 161 219T175 298T188 381T198 445Q198 449 200 458T206 476T215
491T226 498Q229 498 239 493T249 468ZM49 441Q49 439 44 433T32 421T16 409T1 404Q-3 404 -9 404T-22 408T-34 416T-39 431Q-39 445 -29 457T-3 470Q0 470 8 468T26 461T42 452T49 441ZM172 444Q172 438 166 433T153 423T138 416T130 413Q121 413 117 417T110
427T107 438T106 445Q106 449 108 455T114 468T123 478T136 483Q149 483 160 472T172 444Z" />
<glyph unicode="&#x2013;" glyph-name="endash" horiz-adv-x="350" d="M318 220Q318 215 314 208T303 200Q300 199 270 196T192 193Q178 193 157 194T108 196Q103 196 87 193T63 190Q44 190 44 205Q44 216 52 222T69 231T88 234T101 235Q134 235 151 233T182 230Q196
230 212 231T244 233T274 236T298 238Q309 238 313 232T318 220Z" />
<glyph unicode="&#x2014;" glyph-name="emdash" horiz-adv-x="446" d="M403 210Q403 205 399 198T388 190Q385 189 355 186T277 183Q270 183 247 183T197 185T144 186T104 187Q99 187 83 184T59 181Q40 181 40 196Q40 207 48 213T65 222T84 225T97 226Q113 226
139 225T192 223T239 221T267 220Q281 220 297 221T329 223T359 226T383 228Q394 228 398 222T403 210Z" />
<glyph unicode="&#x2018;" glyph-name="quoteleft" horiz-adv-x="150" d="M112 424Q112 419 105 410T90 388T74 355T67 309Q67 282 73 261T107 218Q107 210 101 206T88 202Q71 202 59 214T39 243T28 278T24 311Q24 330 32 351T51 391T76 421T101 433Q104 433 108
430T112 424Z" />
<glyph unicode="&#x2019;" glyph-name="quoteright" horiz-adv-x="153" d="M117 300Q117 282 110 267T92 242T73 225T60 219Q57 219 53 223T48 234Q48 235 52 241T61 255T71 275T75 300Q75 326 70 346T57 387Q56 390 55 394T53 400Q53 407 57 409T67 411Q74 411
83 399T99 369T112 333T117 300Z" />
<glyph unicode="&#x201a;" glyph-name="quotesinglbase" horiz-adv-x="130" d="M98 -17Q98 -35 91 -50T73 -75T54 -92T41 -98Q38 -98 34 -94T29 -83Q29 -82 33 -76T42 -62T52 -42T56 -17Q56 9 51 29T38 70Q37 73 36 77T34 83Q34 90 38 92T48 94Q55 94 64 82T80
52T93 16T98 -17Z" />
<glyph unicode="&#x201c;" glyph-name="quotedblleft" horiz-adv-x="238" d="M109 411Q109 401 106 386T99 355T92 321T89 290Q89 271 88 253T79 235Q69 235 63 242T54 260T49 283T47 304Q47 315 48 322T49 331Q49 337 52 353T61 388T74 420T89 434Q100 434 104
427T109 411ZM211 398Q210 398 207 388T199 363T191 335T187 315Q187 309 189 300T200 274Q196 270 191 265T182 260Q174 260 168 266T156 282T148 302T145 319Q145 326 146 337T150 360T155 381T162 393Q170 400 178 405T197 411Q202 411 207 410T212 402Q212
401 212 400T211 398Z" />
<glyph unicode="&#x201d;" glyph-name="quotedblright" horiz-adv-x="206" d="M170 318Q170 313 168 304T161 286T152 270T142 263Q133 263 131 268T128 281Q128 282 128 288T130 302T131 318T132 330Q132 335 127 343T117 361T106 379T101 394Q101 402 105 404T116
406Q132 406 142 394T159 367T167 337T170 318ZM84 326Q84 312 81 299T72 275T60 258T47 251Q36 251 36 264Q36 278 41 290T47 313Q47 323 41 336T26 361T11 384T4 397Q4 419 25 419Q33 419 43 408T63 381T78 350T84 326Z" />
<glyph unicode="&#x201e;" glyph-name="quotedblbase" horiz-adv-x="206" d="M170 29Q170 24 168 15T161 -3T152 -19T142 -26Q133 -26 131 -21T128 -8Q128 -7 128 -1T130 13T131 29T132 41Q132 46 127 54T117 72T106 90T101 105Q101 113 105 115T116 117Q132 117
142 105T159 78T167 48T170 29ZM84 37Q84 23 81 10T72 -14T60 -31T47 -38Q36 -38 36 -25Q36 -11 41 1T47 24Q47 34 41 47T26 72T11 95T4 108Q4 130 25 130Q33 130 43 119T63 92T78 61T84 37Z" />
<glyph unicode="&#x2022;" glyph-name="bullet" horiz-adv-x="358" d="M234 196Q234 161 212 137T158 112Q130 112 114 124T90 152T79 184T76 209Q76 223 81 240T96 272T118 297T144 307Q147 307 153 306T166 301T179 294T187 282Q198 281 209 276T221 269Q229
249 231 229T234 196Z" />
<glyph unicode="&#x2039;" glyph-name="guilsinglleft" horiz-adv-x="352" d="M301 121Q301 102 290 95T265 88Q242 88 213 108T152 155L124 177Q115 183 115 193Q115 194 115 195T117 201T122 215T131 243Q134 254 138 273T147 314T157 358T168 398T179 427T189
438Q194 438 204 435T215 420Q215 420 212 404T204 364T193 315T181 267Q180 264 178 256T173 239T168 223T166 213Q166 204 180 192T213 168T247 148T268 140Q271 140 276 141T284 142Q292 142 296 133T301 121Z" />
<glyph unicode="&#x203a;" glyph-name="guilsinglright" horiz-adv-x="328" d="M203 199Q203 197 199 177T187 134T168 93T142 74Q132 74 126 81T120 92Q120 99 127 119T143 163T159 207T167 237Q167 241 151 261T115 308T79 367T62 426Q62 433 68 440T79 447Q93
447 99 440T110 422Q114 407 119 390T135 353T163 312T206 266Q208 264 211 260T214 247L203 199Z" />
</font>
</defs>
</svg>
